Loading...
Error

Скачать Охота на воров / Den of Thieves (Кристиан Гьюдгэст / Christian Gudegast) [2018, боевик, триллер, драма, криминал, детектив, WEB-DL] [1080p] [Dub] (iTunes) торрент без регистрации

Статистика раздачи
Размер:  4,86 GB   |    Скачан:  350 раз
Сидов:  10  [  0 KB/s  ]  
 
 
 
Автор Сообщение

leon030982

[] 

Охота на воров / Den of Thieves

Страна: США
Жанр: боевик, триллер, драма, криминал, детектив
Год выпуска: 2018
Продолжительность: 02:20:00
Перевод: Профессиональный (дублированный) iTunes
Субтитры: нет

Режиссер: Кристиан Гьюдгэст / Christian Gudegast

В ролях: Джерард Батлер, Пабло Шрайбер, О’Ши Джексон мл., Фифти Сент, Медоу Уильямс, Морис Комт, Брайан Ван Холт, Ивэн Джонс, Мо, Каиви Лайман

Описание: Большой Ник — начальник элитного подразделения полиции Лос-Анджелеса — ежедневно доказывает, что его команда более крутая, чем те, на кого они охотятся. Когда коп узнает, что легендарный и неуловимый вор планирует дерзкое ограбление Федерального резервного банка США, то он решает помешать этому любым способом. И играть по правилам он не привык.



Тип релиза: WEB-DL 1080p
Контейнер: MKV
Видео: MPEG-4 AVC, 4487 Кбит/с, 1908x792, 23,976 fps
Аудио: Rus, AC3, 384 kb/s (6 ch), 48 kHz
Общее
Уникальный идентификатор : 227284596098162557587571719616353029276 (0xAAFD6BC388599692A378E2C22A444C9C)
Полное имя : DEN_O_THIEVES_WEB_DL_1080p-BLUEBIRD.mkv
Формат : Matroska
Версия формата : Version 4 / Version 2
Размер файла : 4,86 Гбайт
Продолжительность : 2 ч. 20 м.
Общий поток : 4970 Кбит/сек
Название фильма : DEN_O_THIEVES_WEB_DL_1080p-BLUEBIRD
Дата кодирования : UTC 2018-04-11 18:29:17
Программа кодирования : mkvmerge v6.9.1 ('Blue Panther') 32bit built on Apr 18 2014 18:15:44
Библиотека кодирования : libebml v1.3.0 + libmatroska v1.4.1

Видео
Идентификатор : 1
Формат : AVC
Формат/Информация : Advanced Video Codec
Профиль формата : High@L4
Настройки формата : CABAC / 5 Ref Frames
Параметр CABAC формата : Да
Параметр RefFrames формата : 5 кадров
Идентификатор кодека : V_MPEG4/ISO/AVC
Продолжительность : 2 ч. 20 м.
Битрейт : 4487 Кбит/сек
Ширина : 1908 пикселей
Высота : 792 пикселя
Соотношение сторон : 2,40:1
Режим частоты кадров : Постоянный
Частота кадров : 23,976 (24000/1001) кадра/сек
Цветовое пространство : YUV
Субдискретизация насыщенности : 4:2:0
Битовая глубина : 8 бит
Тип развёртки : Прогрессивная
Бит/(Пиксели*Кадры) : 0.124
Размер потока : 4,39 Гбайт (90%)
Заголовок : DEN_O_THIEVES_WEB_DL_1080p-BLUEBIRD
Язык : English
Default : Да
Forced : Нет
Цветовой диапазон : Limited
Основные цвета : BT.709
Характеристики трансфера : BT.709
Коэффициенты матрицы : BT.709

Аудио
Идентификатор : 2
Формат : AC-3
Формат/Информация : Audio Coding 3
Идентификатор кодека : A_AC3
Продолжительность : 2 ч. 20 м.
Вид битрейта : Постоянный
Битрейт : 384 Кбит/сек
Каналы : 6 каналов
Расположение каналов : Front: L C R, Side: L R, LFE
Частота : 48,0 КГц
Частота кадров : 31,250 кадров/сек (1536 SPF)
Битовая глубина : 16 бит
Метод сжатия : С потерями
Размер потока : 385 Мбайт (8%)
Заголовок : [DUB] DD 5.1 @ 384 kbps (iTunes)
Язык : Russian
ServiceKind/String : Complete Main
Default : Да
Forced : Нет

Меню
00:00:00.000 : en:1
00:01:20.000 : en:2
00:09:12.000 : en:3
00:18:55.000 : en:4
00:27:43.000 : en:5
00:38:13.000 : en:6
00:46:44.000 : en:7
00:58:04.000 : en:8
01:08:52.000 : en:9
01:16:29.000 : en:10
01:30:00.000 : en:11
01:49:34.000 : en:12
02:05:41.000 : en:13
02:13:28.000 : en:14



Скачать Охота.на.воров.Den.of.Thieves.(Кристиан.Гьюдгэст.Christian.Gudegast).[2018.боевик.триллер.драма.криминал.детектив.WEB-DL].[1080p].[Dub].(iTunes).torrent без регистрации
Золото ЗОЛОТАЯ РАЗДАЧА! СКАЧАННОЕ НЕ ЗАСЧИТЫВАЕТСЯ! Золото
Дата: Зарегистрирован   [ Тип: внутренний ] Как тут cкачать?
MAGNET ссылка
MAGNET ссылка


Скачать .torrent

25 KB

Статус: проверено DHT
Скачан: торрент - 350 раз, раздача полностью - 772 раз
Размер: 4,86 GB
Оценка:  5 (Голосов: 2)
Поблагодарили: 14
Поделиться ссылкой на эту раздачу с друзьями:
В контактеFacebookОдноклассникиTwitterLivejournalМой МирLiveinternet
 

 
Показать сообщения:    


Вы не можете начинать темы
Вы не можете отвечать на сообщения
Вы не можете редактировать свои сообщения
Вы не можете удалять свои сообщения
Вы не можете голосовать в опросах
Вы не можете прикреплять файлы к сообщениям
Вы можете скачивать файлы