Loading...
Error

Скачать Тайная власть / Deep State / Сезон: 1 / Серии: 1-2 из 8 (Мэттью Паркхилл, Роберт Коннолли) [2018, драма, HDTVRip] [MVO] (FOX) + [Original] торрент без регистрации

Статистика раздачи
Размер:  1,12 GB   |    Скачан:  60 раз
Сидов:  1  [  0 KB/s  ]  
 
 
 
Автор Сообщение

leon030982

[] 

Тайная власть | Deep State
• Год выпуска: 2018
• Страна: Великобритания
• Жанр: драма
• Продолжительность: ~ 00:50:00
• Перевод: Профессиональный (многоголосый закадровый) || FOX ||

• Режиссёр: Мэттью Паркхилл, Роберт Коннолли

• В ролях: Марк Стронг, Джозеф Демпси, Карима Эдебайб, Лайн Рени, Анастасия Гриффит, Алистэр Петри, Амелия Баллмор, Кингсли Бен-Адир, Зубин Варла, Мел Райдо и другие.

• Описание: Действие сериала развертывается вокруг Макса Истона, бывшего спецагента, вынужденного вернуться на службу, чтобы отомстить за смерть своего сына. Он окажется в самом центре тайной войны, которую ведут спецслужбы, и заговора, нацеленного на то, чтобы извлечь максимальную прибыль от распространения хаоса на Ближнем Востоке. Эта история ставит вопрос, можем ли мы убежать от своего прошлого? Действительно ли существует такая вещь, как второй шанс?



• Качество: HDTVRip
• Формат: AVI
• Видео: XviD, 704x352 (16:9), 25 fps, ~1400 kbps
• Аудио #1: MP3, 48 kHz, 2 ch, 128 kbps, CBR - RUS
• Аудио #2: MP3, 48 kHz, 2 ch, 128 kbps, CBR - ENG
• Субтитры: отсутствуют
•• Реклама: отсутствует
Общее
Полное имя                               : X:\00000\Deep State FOX\Deep State.S01E01.XviD.(FOX).MegaPeer.(qqss44).avi
Формат                                   : AVI
Формат/Информация                        : Audio Video Interleave
Размер файла                             : 605 Мбайт
Продолжительность                        : 50 м.
Общий поток                              : 1670 Кбит/сек
Программа кодирования                    : VirtualDubMod 1.5.10.3 | www.virtualdub-fr.org || (build 2550/release)
Библиотека кодирования                   : VirtualDubMod build 2550/release

Видео
Идентификатор                            : 0
Формат                                   : MPEG-4 Visual
Профиль формата                          : Advanced Simple@L5
Параметр BVOP формата                    : 2
Параметр QPel формата                    : Нет
Параметр GMC формата                     : Без точки перехода
Параметр матрицы формата                 : Выборочная
Идентификатор кодека                     : XVID
Идентификатор кодека/Подсказка           : XviD
Продолжительность                        : 50 м.
Битрейт                                  : 1400 Кбит/сек
Ширина                                   : 704 пикселя
Высота                                   : 352 пикселя
Соотношение сторон                       : 2,000
Частота кадров                           : 25,000 кадров/сек
Цветовое пространство                    : YUV
Субдискретизация насыщенности            : 4:2:0
Битовая глубина                          : 8 бит
Тип развёртки                            : Прогрессивная
Метод сжатия                             : С потерями
Бит/(Пиксели*Кадры)                      : 0.226
Размер потока                            : 507 Мбайт (84%)
Библиотека кодирования                   : XviD 73

Аудио #1
Идентификатор                            : 1
Формат                                   : MPEG Audio
Версия формата                           : Version 1
Профиль формата                          : Layer 3
Режим                                    : Joint stereo
Расширение режима                        : MS Stereo
Идентификатор кодека                     : 55
Идентификатор кодека/Подсказка           : MP3
Продолжительность                        : 50 м.
Вид битрейта                             : Постоянный
Битрейт                                  : 128 Кбит/сек
Каналы                                   : 2 канала
Частота                                  : 48,0 КГц
Метод сжатия                             : С потерями
Размер потока                            : 46,3 Мбайт (8%)
Выравнивание                             : Соединение по промежуткам
Продолжительность промежутка             : 40  мс. (1,00 видеокадр)
Время предзагрузки промежутка            : 504  мс.

Аудио #2
Идентификатор                            : 2
Формат                                   : MPEG Audio
Версия формата                           : Version 1
Профиль формата                          : Layer 3
Режим                                    : Joint stereo
Расширение режима                        : MS Stereo
Идентификатор кодека                     : 55
Идентификатор кодека/Подсказка           : MP3
Продолжительность                        : 50 м.
Вид битрейта                             : Постоянный
Битрейт                                  : 128 Кбит/сек
Каналы                                   : 2 канала
Частота                                  : 48,0 КГц
Метод сжатия                             : С потерями
Размер потока                            : 46,3 Мбайт (8%)
Выравнивание                             : Соединение по промежуткам
Продолжительность промежутка             : 40  мс. (1,00 видеокадр)
Время предзагрузки промежутка            : 504  мс.
Когда раздача ведётся путём добавления новых серий, при каждом добавлении создётся новый торрент. Чтобы начать докачку новой серии, пользователям необходимо сделать следующее:
(1) остановить скачивание,
(2) удалить старый торрент у себя из клиента (старые серии удалять не надо),
(3) скачать новый торрент и запустить его у себя в клиенте вместо старого, при этом указать клиенту путь в старую папку, куда и должно происходить скачивание новых серий.
Ваш клиент при этом должен произвести хеширование (проверку) старой папки (если не производит сам - помогите ему сделать это), и будет докачивать только те серии, которых у вас ещё нет. Старые серии при этом не удаляются, а продолжают раздаваться!
Eсли вы уже удалили старые серии, то предотвратить повторную закачку старых серий можно, отжав галочку в соответсвующих местах при запуске нового торрента. По возможности, желательно не удалять старые серии как можно дольше, чтобы релизёр не столько продолжал раздавать старые серии, а смог сконцентрироваться на новых.



Скачать Тайная.власть.Deep.State.Сезон.1.Серии.1-2.из.8.(Мэттью.Паркхилл.Роберт.Коннолли).[2018.драма.HDTVRip].[MVO].(FOX).+.[Original].torrent без регистрации
Золото ЗОЛОТАЯ РАЗДАЧА! СКАЧАННОЕ НЕ ЗАСЧИТЫВАЕТСЯ! Золото
Дата: Зарегистрирован   [ Тип: внутренний ] Как тут cкачать?
MAGNET ссылка
MAGNET ссылка


Скачать .torrent

12 KB

Статус: проверено DHT
Скачан: торрент - 60 раз, раздача полностью - 1 раз
Размер: 1,12 GB
Оценка:  - (Голосов: 0)
Поблагодарили: 0
Поделиться ссылкой на эту раздачу с друзьями:
В контактеFacebookОдноклассникиTwitterLivejournalМой МирLiveinternet
 

 
Показать сообщения:    


Вы не можете начинать темы
Вы не можете отвечать на сообщения
Вы не можете редактировать свои сообщения
Вы не можете удалять свои сообщения
Вы не можете голосовать в опросах
Вы не можете прикреплять файлы к сообщениям
Вы можете скачивать файлы