Loading...
Error

Скачать На грани безумия / Spinning Man (Симон Кайзер) [2018, Триллер, драма, детектив, WEBRip 720p] [DVO] (HiWay Grope) торрент без регистрации

Статистика раздачи
Размер:  1,75 GB   |    Скачан:  158 раз
Сидов:  4  [  9 KB/s  ]   Личеров:  1  [  0 KB/s  ]  
 
 
 
Автор Сообщение

URFIH

[] 


На грани безумия / Spinning Man


Год выпуска: 2018
Выпущено: Швеция, США, Irish DreamTime
Жанр: Триллер, драма, детектив
Продолжительность: 01:41:05
Перевод: Любительский (двухголосый) HiWay Grope
Субтитры: отсутствуют

Режиссер: Симон Кайзер

В ролях: Одейя Раш, Пирс Броснан, Гай Пирс, Минни Драйвер, Александра Шипп, Кларк Грегг, Джейми Кеннеди, Стерлинг Бомон, Фрея Тингли, Карло Рота и другие

Описание: Респектабельная жизнь профессора философии Эвана Берча начинает рушиться по мере того, как появляются подробности о его неподобающем поведении со студентками. В довершении ко всему герой становится центральным подозреваемым в деле об убийстве одной из слушательниц его курса.



Качество: WEBRip 720p
Формат: MKV
Видео кодек: MPEG4
Аудио кодек: AC3
Видео: AVC/x.264,1280x528, 23.976 fps, ~2043 kbps, 0.126 bit/pixel
Аудио: AC3, 48 kHz, 6 ch, 384 Kbps

General
Unique ID : 303274675864612243676131130822593646666 (0xE42893F554A6DFAB4B7AFEF0CDBC904A)
Complete name : E:Spinning.Man.2018.720p.WEBRip.HiWayGropeSpinning.Man.2018.720p.WEBRip.HiWayGrope.mkv
Format : Matroska
Format version : Version 4 / Version 2
File size : 1.75 GiB
Duration : 1h 41mn
Overall bit rate : 2 476 Kbps
Encoded date : UTC 2018-04-12 11:05:38
Writing application : mkvmerge v21.0.0 ('Tardigrades Will Inherit The Earth') 64-bit
Writing library : libebml v1.3.5 + libmatroska v1.4.8

Video
ID : 1
Format : AVC
Format/Info : Advanced Video Codec
Format profile : Main@L4.1
Format settings, CABAC : Yes
Format settings, ReFrames : 4 frames
Codec ID : V_MPEG4/ISO/AVC
Duration : 1h 41mn
Bit rate : 2 043 Kbps
Width : 1 280 pixels
Height : 528 pixels
Display aspect ratio : 2.40:1
Frame rate mode : Constant
Frame rate : 23.976 (24000/1001) fps
Standard : NTSC
Color space : YUV
Chroma subsampling : 4:2:0
Bit depth : 8 bits
Scan type : Progressive
Bits/(Pixel*Frame) : 0.126
Stream size : 1.44 GiB (83%)
Language : English
Default : Yes
Forced : No
Color range : Limited
Color primaries : BT.601 NTSC
Transfer characteristics : BT.601
Matrix coefficients : BT.601

Audio
ID : 2
Format : AC-3
Format/Info : Audio Coding 3
Mode extension : CM (complete main)
Format settings, Endianness : Big
Codec ID : A_AC3
Duration : 1h 41mn
Bit rate mode : Constant
Bit rate : 384 Kbps
Channel(s) : 6 channels
Channel positions : Front: L C R, Side: L R, LFE
Sampling rate : 48.0 KHz
Frame rate : 31.250 fps (1536 spf)
Compression mode : Lossy
Stream size : 278 MiB (16%)
Title : rus
Language : Russian
Default : Yes
Forced : No





Скачать На.грани.безумия.Spinning.Man.(Симон.Кайзер).[2018.Триллер.драма.детектив.WEBRip.720p].[DVO].(HiWay.Grope).torrent без регистрации
Золото ЗОЛОТАЯ РАЗДАЧА! СКАЧАННОЕ НЕ ЗАСЧИТЫВАЕТСЯ! Золото
Дата: Зарегистрирован   [ Тип: внутренний ] Как тут cкачать?
MAGNET ссылка
MAGNET ссылка


Скачать .torrent

18 KB

Статус: * не проверено
Скачан: торрент - 158 раз, раздача полностью - 184 раз
Размер: 1,75 GB
Оценка:  3,5 (Голосов: 2)
Поблагодарили: 7
Поделиться ссылкой на эту раздачу с друзьями:
В контактеFacebookОдноклассникиTwitterLivejournalМой МирLiveinternet
 

 
Показать сообщения:    


Вы не можете начинать темы
Вы не можете отвечать на сообщения
Вы не можете редактировать свои сообщения
Вы не можете удалять свои сообщения
Вы не можете голосовать в опросах
Вы не можете прикреплять файлы к сообщениям
Вы можете скачивать файлы