Loading...
Error

Скачать Приехали на конкурс повара (Нерсес Оганесян) [1977, комедия, DVDRip-AVC] торрент без регистрации

Статистика раздачи
Размер:  1,03 GB   |    Скачан:  57 раз
Сидов:  1  [  0 KB/s  ]  
 
 
 
Автор Сообщение

Marsianka

[] 

Приехали на конкурс повара


Выпущено: СССР
Продолжительность: 01:10:07
Перевод: не требуется
Год выхода: 1977
Жанр: комедия
Режиссер: Нерсес Оганесян
В ролях: Джигарханян Армен, Манарян Ерванд, Арутюнян Степан, Симонова Евгения, Щербаков Борис, Мурзаева Ирина, Басов Владимир, Бабаджанян Ара, Гицерот Наталья

О фильме: Забавные приключения трех поваров, приехавших в Москву на конкурс мастеров кулинарного искусства.
В Москву на конкурс мастеров кулинарного искусства приезжают три замечательных повара из Еревана. Несмотря на все их усилия и мастерство призовое место от армян уплывает. Виной тому - целый ряд веселых и забавных недоразумений...



Кодек: х264
Качество: DVDRip-AVC
Видео: MPEG-4 AVC, 704x562@750x562, 25 fps, 1900 Кбит/с
Звук: AC3, 2 ch, 192 Кбит/с
x264 [info]: frame I:568 Avg QP:17.70 size: 49679
x264 [info]: frame P:24880 Avg QP:19.70 size: 21692
x264 [info]: frame B:79749 Avg QP:21.73 size: 5408
=============================================================================================
Общее
Уникальный идентификатор : 186895152530890757450145863419765090365 (0x8C9AB2734F9DC1DE856044CF7FBA683D)
Полное имя : D:Приехали на конкурс повара_1977-DVDRip-AVC.mkv
Формат : Matroska
Версия формата : Version 2
Размер файла : 1,03 Гбайт
Продолжительность : 1 ч. 10 м.
Общий поток : 2093 Кбит/сек
Дата кодирования : UTC 2016-10-19 21:08:12
Программа кодирования : mkvmerge v5.8.0 ('No Sleep / Pillow') built on Sep 2 2012 15:37:04
Библиотека кодирования : libebml v1.2.3 + libmatroska v1.3.0

Видео
Идентификатор : 1
Формат : AVC
Формат/Информация : Advanced Video Codec
Профиль формата : High@L4.1
Параметр CABAC формата : Да
Параметр ReFrames формата : 14 кадров
Идентификатор кодека : V_MPEG4/ISO/AVC
Продолжительность : 1 ч. 10 м.
Битрейт : 1900 Кбит/сек
Ширина : 704 пикселя
Высота : 562 пикселя
Соотношение сторон : 4:3
Соотношение сторон в оригинале : 4:3
Режим частоты кадров : Постоянный
Частота кадров : 25,000 кадров/сек
Цветовое пространство : YUV
Субдискретизация насыщенности : 4:2:0
Битовая глубина : 8 бит
Тип развёртки : Прогрессивная
Бит/(Пиксели*Кадры) : 0.192
Размер потока : 933 Мбайт (89%)
Заголовок : korsar.tv
Библиотека кодирования : x264 core 148 r2721kMod 72d53ab
Настройки программы : cabac=1 / ref=14 / deblock=1:-2:-2 / analyse=0x3:0x133 / me=umh / subme=10 / psy=1 / fade_compensate=0.00 / psy_rd=1.05:0.15 / mixed_ref=1 / me_range=32 / chroma_me=1 / trellis=2 / 8x8dct=1 / cqm=0 / deadzone=21,11 / fast_pskip=0 / chroma_qp_offset=-3 / threads=12 / lookahead_threads=2 / sliced_threads=0 / nr=0 / decimate=0 / interlaced=0 / bluray_compat=0 / constrained_intra=0 / fgo=0 / bframes=9 / b_pyramid=2 / b_adapt=2 / b_bias=0 / direct=3 / weightb=1 / open_gop=0 / weightp=2 / keyint=250 / keyint_min=25 / scenecut=40 / intra_refresh=0 / rc=2pass / mbtree=0 / bitrate=1900 / ratetol=1.0 / qcomp=0.63 / qpmin=0 / qpmax=39 / qpstep=4 / cplxblur=20.0 / qblur=0.5 / ip_ratio=1.20 / pb_ratio=1.30 / aq=1:1.00
Язык : English
Default : Да
Forced : Нет
Цветовой диапазон : Limited
Основные цвета : BT.601 PAL
Характеристики трансфера : BT.470 System B, BT.470 System G
Коэффициенты матрицы : BT.601

Аудио
Идентификатор : 2
Формат : AC-3
Формат/Информация : Audio Coding 3
Расширение режима : CM (complete main)
Параметр Endianness формата : Big
Идентификатор кодека : A_AC3
Продолжительность : 1 ч. 10 м.
Вид битрейта : Постоянный
Битрейт : 192 Кбит/сек
Каналы : 2 канала
Расположение каналов : Front: L R
Частота : 48,0 КГц
Метод сжатия : С потерями
Задержка видео : 320 мс.
Размер потока : 96,3 Мбайт (9%)
Default : Да
Forced : Нет

Меню
00:00:00.000 : ru:Chapter 1
00:06:48.320 : ru:Chapter 2
00:14:00.200 : ru:Chapter 3
00:21:23.960 : ru:Chapter 4
00:29:17.600 : ru:Chapter 5
00:37:04.680 : ru:Chapter 6
00:44:03.120 : ru:Chapter 7
00:52:02.960 : ru:Chapter 8
00:58:26.960 : ru:Chapter 9
01:05:08.440 : ru:Chapter 10



Скачать Приехали.на.конкурс.повара.(Нерсес.Оганесян).[1977.комедия.DVDRip-AVC].torrent без регистрации
Золото ЗОЛОТАЯ РАЗДАЧА! СКАЧАННОЕ НЕ ЗАСЧИТЫВАЕТСЯ! Золото
Дата: Зарегистрирован   [ Тип: внутренний ] Как тут cкачать?
MAGNET ссылка
MAGNET ссылка


Скачать .torrent

11 KB

Статус: проверено DHT
Скачан: торрент - 57 раз, раздача полностью - 21 раз
Размер: 1,03 GB
Оценка:  - (Голосов: 0)
Поблагодарили: 2
Поделиться ссылкой на эту раздачу с друзьями:
В контактеFacebookОдноклассникиTwitterLivejournalМой МирLiveinternet
 

 
Показать сообщения:    


Вы не можете начинать темы
Вы не можете отвечать на сообщения
Вы не можете редактировать свои сообщения
Вы не можете удалять свои сообщения
Вы не можете голосовать в опросах
Вы не можете прикреплять файлы к сообщениям
Вы можете скачивать файлы