Loading...
Error

Скачать Могучие рейнджеры / Power Rangers (Дин Израэлайт) [2017, Фантастика, боевик, приключения, BDRip][1080p] [DUB Лицензия] [R.G. GoldenShara] торрент без регистрации

Статистика раздачи
Размер:  4,36 GB   |    Скачан:  69 раз
Сидов:  1  [  0 KB/s  ]  
 
 
 
Автор Сообщение

Magnetto83

[] 


Могучие рейнджеры / Power Rangers


Год выпуска: 2017
Страны: США, Гонконг, Япония, Мексика, Канада, Новая Зеландия
Студии: Lionsgate, Saban Brands, Saban Entertainment Inc., Temple Hill Entertainment, Walt Disney Studios Motion Pictures
Жанр: Фантастика, боевик, приключения
Продолжительность: 02:03:58
Перевод: Профессиональный (полное дублирование) | Blu-ray EUR |
Субтитры: Русские (Форс., полные), английские (full, SDH, SDH Colored)
Навигация по главам: Сохранены оригинальные главы как на Blu-ray

Слоган: «Back to action!»

Режиссер: Дин Израэлайт

В ролях: Дакре Монтгомери, Наоми Скотт, АрДжей Сайлер, Луди Линь, Бекки Джи, Элизабет Бэнкс, Брайан Крэнстон, Билл Хэйдер, Мэтт Шайвли, Коуди Кирсли

Описание: Пять обычных старшеклассников узнают, что их маленький город Энджел Гроув и весь мир находятся на грани уничтожения инопланетной угрозой. Избранные судьбой наши герои быстро понимают, что они единственные, кто может спасти планету.



Возраст: 16+ (зрителям, достигшим 16 лет)
Рейтинг MPAA: PG-13 (детям до 13 лет просмотр нежелателен)

Качество: BDRip 1080p
Формат: MKV
Видео кодек: H.264
Аудио кодек: AC3
Видео: 1920x800 (2.40:1), 4594 Кбит/с, 23.976 fps
Аудио: Русский Dolby Digital 5.1 (448 Кбит/с)


x264 [info]: frame I:1290 Avg QP:18.06 size:128775
x264 [info]: frame P:50455 Avg QP:21.07 size: 41907
x264 [info]: frame B:126600 Avg QP:23.27 size: 15693
x264 [info]: consecutive B-frames: 5.0% 6.8% 15.8% 32.9% 18.7% 17.4% 2.2% 0.5% 0.6%
x264 [total]: encoded 178345 frames, 2.08 fps, 4589.45 kb/s



General
Complete name : G:\Видео\Мои Рипы 1080p\Кино-Хиты 2017\Могучие рейнджеры 2017 Dub Rus BDRip 1080p (Rework).mkv
Format : Matroska
Format version : Version 4 / Version 2
File size : 4.36 GiB
Duration : 2h 3mn
Overall bit rate : 5 040 Kbps
Movie name : Могучие рейнджеры 2017 Dub Rus BDRip 1080p By R.G. GoldenShara
Encoded date : UTC 2018-04-05 10:41:35
Writing application : mkvmerge v7.8.0 ('River Man') 32bit built on Mar 27 2015 16:18:02
Writing library : libebml v1.3.1 + libmatroska v1.4.2
Attachements : Cover.jpg
DURATION : 01:55:27.000000000
NUMBER_OF_FRAMES : 1877
NUMBER_OF_BYTES : 79632
_STATISTICS_WRITING_APP : mkvmerge v7.8.0 ('River Man') 32bit built on Mar 27 2015 16:18:02
_STATISTICS_WRITING_DATE_UTC : 2018-04-05 10:41:35
_STATISTICS_TAGS : BPS DURATION NUMBER_OF_FRAMES NUMBER_OF_BYTES

Video
ID : 1
Format : AVC
Format/Info : Advanced Video Codec
Format profile : High@L4.1
Format settings, CABAC : Yes
Format settings, ReFrames : 5 frames
Codec ID : V_MPEG4/ISO/AVC
Duration : 2h 3mn
Bit rate : 4 594 Kbps
Width : 1 920 pixels
Height : 800 pixels
Display aspect ratio : 2.40:1
Frame rate mode : Constant
Frame rate : 23.976 fps
Color space : YUV
Chroma subsampling : 4:2:0
Bit depth : 8 bits
Scan type : Progressive
Bits/(Pixel*Frame) : 0.125
Stream size : 3.89 GiB (89%)
Title : Могучие рейнджеры 2017 BDRip 1080p By Magnetto 83
Writing library : x264 core 146 r2538 121396c
Encoding settings : cabac=1 / ref=5 / deblock=1:-1:-1 / analyse=0x3:0x113 / me=umh / subme=10 / psy=1 / psy_rd=1.00:0.00 / mixed_ref=1 / me_range=32 / chroma_me=1 / trellis=2 / 8x8dct=1 / cqm=0 / deadzone=21,11 / fast_pskip=0 / chroma_qp_offset=-2 / threads=3 / lookahead_threads=1 / sliced_threads=0 / nr=0 / decimate=1 / interlaced=0 / bluray_compat=0 / constrained_intra=0 / bframes=8 / b_pyramid=2 / b_adapt=2 / b_bias=0 / direct=3 / weightb=1 / open_gop=0 / weightp=2 / keyint=250 / keyint_min=23 / scenecut=40 / intra_refresh=0 / rc=2pass / mbtree=0 / bitrate=4594 / ratetol=1.0 / qcomp=0.60 / qpmin=0 / qpmax=69 / qpstep=4 / cplxblur=20.0 / qblur=0.5 / ip_ratio=1.40 / pb_ratio=1.30 / aq=2:1.00
Language : English
Default : Yes
Forced : No

Audio
ID : 2
Format : AC-3
Format/Info : Audio Coding 3
Mode extension : CM (complete main)
Format settings, Endianness : Big
Codec ID : A_AC3
Duration : 2h 3mn
Bit rate mode : Constant
Bit rate : 448 Kbps
Channel(s) : 6 channels
Channel positions : Front: L C R, Side: L R, LFE
Sampling rate : 48.0 KHz
Compression mode : Lossy
Stream size : 397 MiB (9%)
Title : DD 5.1 @ 448 kbps - Дубляж | Blu-ray EUR |
Language : Russian
Default : Yes
Forced : No

Text #1
ID : 3
Format : UTF-8
Codec ID : S_TEXT/UTF8
Codec ID/Info : UTF-8 Plain Text
Title : Форс.
Language : Russian
Default : Yes
Forced : No

Text #2
ID : 4
Format : UTF-8
Codec ID : S_TEXT/UTF8
Codec ID/Info : UTF-8 Plain Text
Title : Полные
Language : Russian
Default : No
Forced : No

Text #3
ID : 5
Format : UTF-8
Codec ID : S_TEXT/UTF8
Codec ID/Info : UTF-8 Plain Text
Title : Full
Language : English
Default : No
Forced : No

Text #4
ID : 6
Format : UTF-8
Codec ID : S_TEXT/UTF8
Codec ID/Info : UTF-8 Plain Text
Title : SDH
Language : English
Default : No
Forced : No

Text #5
ID : 7
Format : UTF-8
Codec ID : S_TEXT/UTF8
Codec ID/Info : UTF-8 Plain Text
Title : SDH-Colored
Language : English
Default : No
Forced : No

Menu
00:00:00.000 : en:(01)00:00:00:000
00:11:43.536 : en:(02)00:11:43:536
00:22:34.186 : en:(03)00:22:34:186
00:30:52.308 : en:(04)00:30:52:308
00:40:06.487 : en:(05)00:40:06:487
00:49:44.564 : en:(06)00:49:44:564
01:01:31.187 : en:(07)01:01:31:187
01:13:15.015 : en:(08)01:13:15:015
01:24:13.339 : en:(09)01:24:13:339
01:34:11.687 : en:(10)01:34:11:687
01:45:09.303 : en:(11)01:45:09:303
01:53:45.318 : en:(12)01:53:45:318







Скачать Могучие.рейнджеры.Power.Rangers.(Дин.Израэлайт).[2017.Фантастика.боевик.приключения.BDRip][1080p].[DUB.Лицензия].[R.G.GoldenShara].torrent без регистрации
Золото ЗОЛОТАЯ РАЗДАЧА! СКАЧАННОЕ НЕ ЗАСЧИТЫВАЕТСЯ! Золото
Дата: Зарегистрирован   [ Тип: внутренний ] Как тут cкачать?
MAGNET ссылка
MAGNET ссылка


Скачать .torrent

11 KB

Статус: проверено
Скачан: торрент - 69 раз, раздача полностью - 17 раз
Размер: 4,36 GB
Оценка:  5 (Голосов: 3)
Поблагодарили: 9
Поделиться ссылкой на эту раздачу с друзьями:
В контактеFacebookОдноклассникиTwitterLivejournalМой МирLiveinternet
 

 

Magnetto83

[] 

ab Звук от iTunes заменен на звук от Blu-ray EUR! ad
 

torch3100

[] 

Дайте скорости пожалуйста af
 

Magnetto83

[] 

Уважаемые друзья! В рипе обнаружен небольшой дефект в виде рассыпания изображения на несколько секунд. Если кому для коллекции - не качайте! В ближайшее время рип будет переделан. Извините за неудобства!
 

Magnetto83

[] 

ab Рип полностью переделан с другого источника. ad Приятного просмотра! az
 
Показать сообщения:    


Вы не можете начинать темы
Вы не можете отвечать на сообщения
Вы не можете редактировать свои сообщения
Вы не можете удалять свои сообщения
Вы не можете голосовать в опросах
Вы не можете прикреплять файлы к сообщениям
Вы можете скачивать файлы