Loading...
Error

Скачать Живет такой парень (Василий Шукшин) [1964, комедия, DVDRip-AVC] торрент без регистрации

Статистика раздачи
Размер:  2,44 GB   |    Скачан:  52 раза
Сидов:  5  [  0 KB/s  ]  
 
 
 
Автор Сообщение

Marsianka

[] 

Живет такой парень


Страна: СССР
Жанр: комедия
Год выпуска: 1964
Продолжительность: 01:33:16 мин.
Перевод: Не требуется
Режиссер: Василий Шукшин
В ролях: Леонид Куравлев, Л: Александрова, Л. Буркова, Р. Григорьева, Нина Сазонова, Борис Балакин, Анастасия Зуева, Р. Нахапетов,
Б. Ахмадулина, Валерий Филиппов, Иван Рыжов, Н. Федорцов, Е. Тетерин, Б. Романов

Описание: В общем-то он обыкновенный парень - шофер Пашка Колокольников. Живет себе, работает, мечтает, встречается и расстается с самыми разными людьми.
Но есть у него особая черта: он чувствует себя счастливым, только если вокруг всем хорошо. Собственная жизнь волнует его меньше, чем судьбы других людей.
Ради них он и дурачком прикинется, и подвиг совершит...



Кодек: х264
Качество: DVDRip-AVC
Видео: MPEG-4 AVC, 720х558@768x558, 25 fps, 3000 Кбит/с
Аудио: АС3, 6h, 448 Кбит/с, АС3, 1h 224 Кбит/с
Субтитры: Нет
Главы: Есть

x264 [info]: frame I:686 Avg QP:15.98 size: 73612
x264 [info]: frame P:35075 Avg QP:18.41 size: 33066
x264 [info]: frame B:107132 Avg QP:19.62 size: 8702

Общее
Уникальный идентификатор : 252895342762506496620229466183697113063 (0xBE41DF1048F204968A2CDA62456B1FE7)
Полное имя : I:сссрЖивет такой парень 1964_DVDRip-AVC_KORSAR.mkv
Формат : Matroska
Версия формата : Version 2
Размер файла : 2,44 Гбайт
Продолжительность : 1 ч. 35 м.
Общий поток : 3673 Кбит/сек
Дата кодирования : UTC 2018-04-14 17:06:16
Программа кодирования : mkvmerge v5.8.0 ('No Sleep / Pillow') built on Sep 2 2012 15:37:04
Библиотека кодирования : libebml v1.2.3 + libmatroska v1.3.0

Видео
Идентификатор : 1
Формат : AVC
Формат/Информация : Advanced Video Codec
Профиль формата : High@L4.1
Настройки формата : CABAC / 15 Ref Frames
Параметр CABAC формата : Да
Параметр RefFrames формата : 15 кадров
Идентификатор кодека : V_MPEG4/ISO/AVC
Продолжительность : 1 ч. 35 м.
Битрейт : 3000 Кбит/сек
Ширина : 720 пикселей
Высота : 558 пикселей
Соотношение сторон : 1,376
Режим частоты кадров : Постоянный
Частота кадров : 25,000 кадров/сек
Цветовое пространство : YUV
Субдискретизация насыщенности : 4:2:0
Битовая глубина : 8 бит
Тип развёртки : Прогрессивная
Бит/(Пиксели*Кадры) : 0.299
Размер потока : 1,95 Гбайт (80%)
Библиотека кодирования : x264 core 152 r2851kMod ba24899
Настройки программы : cabac=1 / ref=15 / deblock=1:-2:-2 / analyse=0x3:0x113 / me=umh / subme=11 / psy=1 / fade_compensate=0.00 / psy_rd=1.05:0.05 / mixed_ref=1 / me_range=48 / chroma_me=1 / trellis=2 / 8x8dct=1 / cqm=0 / deadzone=21,11 / fast_pskip=0 / chroma_qp_offset=-3 / threads=12 / lookahead_threads=3 / sliced_threads=0 / nr=0 / decimate=0 / interlaced=0 / bluray_compat=0 / constrained_intra=0 / bframes=10 / b_pyramid=2 / b_adapt=2 / b_bias=0 / direct=3 / weightb=1 / open_gop=0 / weightp=2 / keyint=250 / keyint_min=25 / scenecut=40 / intra_refresh=0 / rc_lookahead=40 / rc=2pass / mbtree=0 / bitrate=3000 / ratetol=1.0 / qcomp=0.60 / qpmin=0 / qpmax=39 / qpstep=4 / cplxblur=20.0 / qblur=0.5 / vbv_maxrate=50000 / vbv_bufsize=62500 / nal_hrd=none / filler=0 / ip_ratio=1.25 / pb_ratio=1.30 / aq=1:1.00
Язык : English
Default : Да
Forced : Нет
Цветовой диапазон : Limited
Основные цвета : BT.601 PAL
Характеристики трансфера : BT.470 System B, BT.470 System G
Коэффициенты матрицы : BT.470 System B, BT.470 System G

Аудио #1
Идентификатор : 2
Формат : AC-3
Формат/Информация : Audio Coding 3
Параметр Endianness формата : Big
Идентификатор кодека : A_AC3
Продолжительность : 1 ч. 35 м.
Вид битрейта : Постоянный
Битрейт : 448 Кбит/сек
Каналы : 6 каналов
Расположение каналов : Front: L C R, Side: L R, LFE
Частота : 48,0 КГц
Частота кадров : 31,250 кадров/сек (1536 SPF)
Битовая глубина : 16 бит
Метод сжатия : С потерями
Задержка видео : 1 с. 86 мс.
Размер потока : 305 Мбайт (12%)
Язык : Russian
Default : Да
Forced : Нет

Аудио #2
Идентификатор : 3
Формат : AC-3
Формат/Информация : Audio Coding 3
Параметр Endianness формата : Big
Идентификатор кодека : A_AC3
Продолжительность : 1 ч. 35 м.
Вид битрейта : Постоянный
Битрейт : 224 Кбит/сек
Каналы : 1 канал
Расположение каналов : Front: C
Частота : 48,0 КГц
Частота кадров : 31,250 кадров/сек (1536 SPF)
Битовая глубина : 16 бит
Метод сжатия : С потерями
Задержка видео : 1 с. 84 мс.
Размер потока : 153 Мбайт (6%)
Язык : Russian
Default : Нет
Forced : Нет

Меню
00:00:00.000 : en:Chapter 1
00:05:42.720 : en:Chapter 2
00:11:35.040 : en:Chapter 3
00:18:42.240 : en:Chapter 4
00:25:34.080 : en:Chapter 5
00:30:42.720 : en:Chapter 6
00:39:32.160 : en:Chapter 7
00:50:22.080 : en:Chapter 8
01:00:49.440 : en:Chapter 9
01:13:06.240 : en:Chapter 10
01:24:24.000 : en:Chapter 11



Скачать Живет.такой.парень.(Василий.Шукшин).[1964.комедия.DVDRip-AVC].torrent без регистрации
Золото ЗОЛОТАЯ РАЗДАЧА! СКАЧАННОЕ НЕ ЗАСЧИТЫВАЕТСЯ! Золото
Дата: Зарегистрирован   [ Тип: внешний ] Как тут cкачать?
MAGNET ссылка
MAGNET ссылка


Скачать .torrent

13 KB

Статус: проверено DHT
Скачан: торрент - 52 раз, раздача полностью - 19 раз
Размер: 2,44 GB
Оценка:  - (Голосов: 0)
Поблагодарили: 0
Поделиться ссылкой на эту раздачу с друзьями:
В контактеFacebookОдноклассникиTwitterLivejournalМой МирLiveinternet
 

 
Показать сообщения:    


Вы не можете начинать темы
Вы не можете отвечать на сообщения
Вы не можете редактировать свои сообщения
Вы не можете удалять свои сообщения
Вы не можете голосовать в опросах
Вы не можете прикреплять файлы к сообщениям
Вы можете скачивать файлы