Loading...
Error

Скачать Ответный ход (Михаил Туманишвили) [1981, боевик, военный, DVDRip] торрент без регистрации

Статистика раздачи
Размер:  742 MB   |    Скачан:  36 раз
Сидов:  1  [  0 KB/s  ]  
 
 
 
Автор Сообщение

Marsianka

[] 

Информация о фильме
Название: Ответный ход
Год выхода: 1981
Жанр: боевик, военный
Режиссёр: Михаил Туманишвили
В ролях: Борис Галкин, Михай Волонтир, Анатолий Ромашин, Александр Пятков, Анатолий Кузнецов, Чигарев Михаил, Маренков Владимир, Вадим Спиридонов, Даниил Нетребин, Леонид Белозорович, Глебова Елена, Лаймонас Норейка

О фильме: Вторая часть истории, начатой фильмом «В зоне особого внимания». Действие вновь разворачивается во время крупных войсковых учений. Однако на этот раз перед десантниками поставлены более сложные задачи...



Страна: СССР
Студия: Мосфильм
Продолжительность: 01:19:42
Перевод: Не требуется (оригинальный)

Файл
Формат: avi
Качество: DVDRip (DVD5)
Видео: XviD, 656х368, 25fps, 1164kbps
Аудио: MPEG Layer 3, 2ch, 48000Hz, 112kbps


Общее
Полное имя : Otvetnyi.Hod.1981.O.DVDRip.700.CurHaJI.avi
Формат : AVI
Формат/Информация : Audio Video Interleave
Размер файла : 742 Мбайт
Продолжительность : 1 ч. 19 м.
Общий поток : 1301 Кбит/сек
Название фильма : Otvetnyi.Hod.1978.O.DVDRip.700.CurHaJI
Программа кодирования : VirtualDubMod 1.5.10.3 | www.virtualdub-fr.org || (build 2550/release)
Библиотека кодирования : VirtualDub build 35491/release

Видео
Идентификатор : 0
Формат : MPEG-4 Visual
Профиль формата : Advanced Simple@L5
Параметр BVOP формата : 1
Параметр QPel формата : Нет
Параметр GMC формата : Без точки перехода
Параметр матрицы формата : Выборочная
Идентификатор кодека : XVID
Идентификатор кодека/Подсказка : XviD
Продолжительность : 1 ч. 19 м.
Битрейт : 1164 Кбит/сек
Ширина : 656 пикселей
Высота : 368 пикселей
Соотношение сторон : 16:9
Частота кадров : 25,000 кадров/сек
Цветовое пространство : YUV
Субдискретизация насыщенности : 4:2:0
Битовая глубина : 8 бит
Тип развёртки : Прогрессивная
Метод сжатия : С потерями
Бит/(Пиксели*Кадры) : 0.193
Размер потока : 663 Мбайт (89%)
Библиотека кодирования : XviD 73

Аудио
Идентификатор : 1
Формат : MPEG Audio
Версия формата : Version 1
Профиль формата : Layer 3
Идентификатор кодека : 55
Идентификатор кодека/Подсказка : MP3
Продолжительность : 1 ч. 19 м.
Вид битрейта : Постоянный
Битрейт : 128 Кбит/сек
Каналы : 2 канала
Частота : 48,0 КГц
Метод сжатия : С потерями
Размер потока : 73,0 Мбайт (10%)
Выравнивание : Соединение по промежуткам
Продолжительность промежутка : 40 мс. (1,00 видеокадр)
Время предзагрузки промежутка : 504 мс.
Библиотека кодирования : LAME3.99r
Настройки программы : -m s -V 4 -q 2 -lowpass 17 -b 128
Релиз от:



Скачать Ответный.ход.(Михаил.Туманишвили).[1981.боевик.военный.DVDRip].torrent без регистрации
Золото ЗОЛОТАЯ РАЗДАЧА! СКАЧАННОЕ НЕ ЗАСЧИТЫВАЕТСЯ! Золото
Дата: Зарегистрирован   [ Тип: внутренний ] Как тут cкачать?
MAGNET ссылка
MAGNET ссылка


Скачать .torrent

16 KB

Статус: проверено DHT
Скачан: торрент - 36 раз, раздача полностью - 12 раз
Размер: 742 MB
Оценка:  - (Голосов: 0)
Поблагодарили: 0
Поделиться ссылкой на эту раздачу с друзьями:
В контактеFacebookОдноклассникиTwitterLivejournalМой МирLiveinternet
 

 
Показать сообщения:    


Вы не можете начинать темы
Вы не можете отвечать на сообщения
Вы не можете редактировать свои сообщения
Вы не можете удалять свои сообщения
Вы не можете голосовать в опросах
Вы не можете прикреплять файлы к сообщениям
Вы можете скачивать файлы