Loading...
Error

Скачать Затерянные в космосе / Lost in Space / Сезон: 1 / Серии: 1 из 10 (Тим Соутэм, Дебора Чоу, Элис Тротон) [2018, Фантастика, приключения, WEBRip] [MVO] (Profix Media) + Original торрент без регистрации

Статистика раздачи
Размер:  751 MB   |    Скачан:  53 раза
Сидов:  1  [  0 KB/s  ]  
 
 
 
Автор Сообщение

leon030982

[] 

Затерянные в космосе
Lost in Space
Год выпуска: 2018
Страна: США
Жанр: Фантастика, приключения
Продолжительность: ~01:00:00
Перевод: Профессиональный (многоголосый закадровый) Студия «Profix Media»

Режиссёр: Тим Соутэм, Дебора Чоу, Элис Тротон

В ролях: Мина Сандвол, Молли Паркер, Тоби Стивенс, Паркер Поузи, Макс Дженкинс, Тейлор Расселл, Игнасио Серричио, Амелия Берстин, Раза Джеффри, Аджай Парих-Фризе

Описание: Это история о семье Робинсонов, отправившихся в космическое путешествие на другую планету. По воле обстоятельств их звездолёт оказывается в уйме световых лет от места назначения, и теперь экипажу придётся сплотиться, чтобы пережить множество опасных приключений и побороть своих внутренних демонов.



Релиз -- JuSSiKa

Сэмпл

Качество: WEBRip
Формат: AVI
Видео: XviD, 720x352 (16:9), 23,976 fps, ~1500 kbps
Аудио Rus: MP3, 48 kHz, 2 ch, 128 kbps
Аудио Eng: MP3, 48 kHz, 2 ch, 128 kbps
Субтитры: отсутствуют
Полное имя                               : Lost.in.Space.S01.WEBRip.RusEng.Profix.Media\Lost.in.Space.S01E01.WEBRip.RusEng.Profix.Media.L.avi
Формат                                   : AVI
Формат/Информация                        : Audio Video Interleave
Размер файла                             : 751 Мбайт
Продолжительность                        : 1 ч. 2 м.
Общий поток                              : 1678 Кбит/сек
Программа кодирования                    : VirtualDubMod 1.5.10.3 (build 2550/release)
Библиотека кодирования                   : VirtualDubMod build 2550/release

Видео
Идентификатор                            : 0
Формат                                   : MPEG-4 Visual
Профиль формата                          : Advanced Simple@L5
Настройки формата                        : BVOP1
Параметр BVOP формата                    : 1
Параметр QPel формата                    : Нет
Параметр GMC формата                     : Без точки перехода
Параметр матрицы формата                 : Default (H.263)
Идентификатор кодека                     : XVID
Идентификатор кодека/Подсказка           : XviD
Продолжительность                        : 1 ч. 2 м.
Битрейт                                  : 1408 Кбит/сек
Ширина                                   : 720 пикселей
Высота                                   : 352 пикселя
Соотношение сторон                       : 2,045
Частота кадров                           : 23,976 (24000/1001) кадра/сек
Цветовое пространство                    : YUV
Субдискретизация насыщенности            : 4:2:0
Битовая глубина                          : 8 бит
Тип развёртки                            : Прогрессивная
Метод сжатия                             : С потерями
Бит/(Пиксели*Кадры)                      : 0.232
Размер потока                            : 630 Мбайт (84%)
Библиотека кодирования                   : XviD 1.2.1 (UTC 2008-12-04)

Аудио #1
Идентификатор                            : 1
Формат                                   : MPEG Audio
Версия формата                           : Version 1
Профиль формата                          : Layer 3
Настройки формата                        : Joint stereo
Режим                                    : Joint stereo
Идентификатор кодека                     : 55
Идентификатор кодека/Подсказка           : MP3
Продолжительность                        : 1 ч. 2 м.
Вид битрейта                             : Постоянный
Битрейт                                  : 128 Кбит/сек
Каналы                                   : 2 канала
Частота                                  : 48,0 КГц
Метод сжатия                             : С потерями
Размер потока                            : 57,3 Мбайт (8%)
Выравнивание                             : Соединение по промежуткам
Продолжительность промежутка             : 42  мс. (1,00 видеокадр)
Время предзагрузки промежутка            : 504  мс.

Аудио #2
Идентификатор                            : 2
Формат                                   : MPEG Audio
Версия формата                           : Version 1
Профиль формата                          : Layer 3
Настройки формата                        : Joint stereo
Режим                                    : Joint stereo
Идентификатор кодека                     : 55
Идентификатор кодека/Подсказка           : MP3
Продолжительность                        : 1 ч. 2 м.
Вид битрейта                             : Постоянный
Битрейт                                  : 128 Кбит/сек
Каналы                                   : 2 канала
Частота                                  : 48,0 КГц
Метод сжатия                             : С потерями
Размер потока                            : 57,3 Мбайт (8%)
Выравнивание                             : Соединение по промежуткам
Продолжительность промежутка             : 42  мс. (1,00 видеокадр)
Время предзагрузки промежутка            : 504  мс.
Внимание! Раздача ведётся путём добавления новых серий; при каждом добавлении создаётся новый торрент. Чтобы начать докачку новой серии, пользователям необходимо сделать следующее:
(1) остановить скачивание,
(2) удалить старый торрент у себя из клиента (старые серии удалять не надо),
(3) скачать новый торрент и запустить его у себя в клиенте вместо старого, при этом указать клиенту путь в старую папку куда и должно происходить скачивание новых серий.

Ваш клиент при этом должен произвести хеширование (проверку) старой папки (если не производит сам - помогите ему сделать это), и будет докачивать только те серии которых у вас ещё нет. Старые серии при этом не удаляются, а продолжают раздаваться!

Eсли вы уже удалили старые серии, то предотвратить повторную закачку старых серий можно, отжав галочку в соответствующих местах при запуске нового торрента. По возможности, желательно не удалять старые серии как можно дольше чтобы релизёр не столько продолжал раздавать старые серии, а смог сконцентрироваться на новых.



Скачать Затерянные.в.космосе.Lost.in.Space.Сезон.1.Серии.1.из.10.(Тим.Соутэм.Дебора.Чоу.Элис.Тротон).[2018.Фантастика.приключения.WEBRip].[MVO].(Profix.Media).+.Original.torrent без регистрации
Золото ЗОЛОТАЯ РАЗДАЧА! СКАЧАННОЕ НЕ ЗАСЧИТЫВАЕТСЯ! Золото
Дата: Зарегистрирован   [ Тип: внутренний ] Как тут cкачать?
MAGNET ссылка
MAGNET ссылка


Скачать .torrent

15 KB

Статус: проверено DHT
Скачан: торрент - 53 раз, раздача полностью - 20 раз
Размер: 751 MB
Оценка:  - (Голосов: 0)
Поблагодарили: 1
Поделиться ссылкой на эту раздачу с друзьями:
В контактеFacebookОдноклассникиTwitterLivejournalМой МирLiveinternet
 

 
Показать сообщения:    


Вы не можете начинать темы
Вы не можете отвечать на сообщения
Вы не можете редактировать свои сообщения
Вы не можете удалять свои сообщения
Вы не можете голосовать в опросах
Вы не можете прикреплять файлы к сообщениям
Вы можете скачивать файлы