Loading...
Error

Скачать Афера Томаса Крауна / The Thomas Crown Affair (Норман Джуисон) [1968, триллер, драма, мелодрама, криминал, BDRip] [1080p] [MVO]x2+[AVO]+[Оригинал Eng]+[Sub Eng] торрент без регистрации

Статистика раздачи
Размер:  10,68 GB   |    Скачан:  56 раз
Сидов:  1  [  0 KB/s  ]  
 
 
 
Автор Сообщение

Marsianka

[] 

Название: Афера Томаса Крауна
Оригинальное название: The Thomas Crown Affair
Год выпуска: 1968
Выпущено: США, The Mirisch Corporation, Solar Productions, Simkoe
Жанр: триллер, драма, мелодрама, криминал
Режиссер: Норман Джуисон
В ролях: Стив МакКуин (I), Фэй Данауэй, Пол Бурк, Джек Уэстон, Бифф МакГуайр, Эддисон Пауэлл, Астрид Хирен, Гордон Пинсент, Яфет Котто, Сидни Армус

О фильме:
Главный герой хладнокровно задумывает и осуществляет идеальное ограбление банка, которое одно само смотрится с наслаждением. Ограбление расследует следователь страховой компании, ставшая жертвой очарования Стива, и, следовательно, его упустившая.


Продолжительность: 01:42:08
Перевод: Профессиональный многоголосый, авторский
Субтитры: Английские
Навигация по главам: Есть

Файл
Качество: BDRip 1080p
Видео: MPEG-4 AVC, 13,8 Мбит/сек, 1920x1040, 23,976 кадра/сек
Аудио #1: AC3, 2 ch, 192 Кбит/сек | Русский, профессиональный (многоголосый закадровый) НТВ+
Аудио #2: AC3, 2 ch, 384 Кбит/сек | Русский, профессиональный (многоголосый закадровый) DVD Магия
Аудио #3: AC3, 2 ch, 192 Кбит/сек | Русский, авторский (одноголосый закадровый) Андрей Гаврилов
Аудио #4: AC3, 2 ch, 384 Кбит/сек | Английский, оригинал
Общее
Уникальный идентификатор : 237481557630407376167991763936144308866 (0xB2A948C868EF8451892D37D1EF28BA82)
Полное имя : Афера.Томаса.Крауна.1968.BDRip.1080p.mkv
Формат : Matroska
Версия формата : Version 2
Размер файла : 10,7 Гбайт
Продолжительность : 1 ч. 42 м.
Общий поток : 15,0 Мбит/сек
Дата кодирования : UTC 2018-04-16 20:56:27
Программа кодирования : mkvmerge v5.8.0 ('No Sleep / Pillow') built on Sep 2 2012 15:37:04
Библиотека кодирования : libebml v1.2.3 + libmatroska v1.3.0

Видео
Идентификатор : 1
Формат : AVC
Формат/Информация : Advanced Video Codec
Профиль формата : High@L4.1
Настройки формата : CABAC / 4 Ref Frames
Параметр CABAC формата : Да
Параметр RefFrames формата : 4 кадра
Идентификатор кодека : V_MPEG4/ISO/AVC
Продолжительность : 1 ч. 42 м.
Битрейт : 13,8 Мбит/сек
Ширина : 1920 пикселей
Высота : 1040 пикселей
Соотношение сторон : 1,85:1
Режим частоты кадров : Постоянный
Частота кадров : 23,976 (24000/1001) кадра/сек
Цветовое пространство : YUV
Субдискретизация насыщенности : 4:2:0
Битовая глубина : 8 бит
Тип развёртки : Прогрессивная
Бит/(Пиксели*Кадры) : 0.289
Размер потока : 9,64 Гбайт (90%)
Библиотека кодирования : x264 core 155 r2901 7d0ff22
Настройки программы : cabac=1 / ref=4 / deblock=1:-3:-3 / analyse=0x3:0x133 / me=umh / subme=10 / psy=1 / psy_rd=1.10:0.00 / mixed_ref=1 / me_range=32 / chroma_me=1 / trellis=2 / 8x8dct=1 / cqm=0 / deadzone=21,11 / fast_pskip=0 / chroma_qp_offset=-2 / threads=18 / lookahead_threads=3 / sliced_threads=0 / nr=0 / decimate=1 / interlaced=0 / bluray_compat=0 / constrained_intra=0 / bframes=8 / b_pyramid=2 / b_adapt=2 / b_bias=0 / direct=3 / weightb=1 / open_gop=0 / weightp=2 / keyint=240 / keyint_min=24 / scenecut=40 / intra_refresh=0 / rc_lookahead=60 / rc=2pass / mbtree=1 / bitrate=13814 / ratetol=1.0 / qcomp=0.60 / qpmin=0 / qpmax=69 / qpstep=4 / cplxblur=20.0 / qblur=0.5 / ip_ratio=1.30 / aq=3:0.75
Язык : English
Default : Да
Forced : Нет

Аудио #1
Идентификатор : 2
Формат : AC-3
Формат/Информация : Audio Coding 3
Идентификатор кодека : A_AC3
Продолжительность : 1 ч. 42 м.
Вид битрейта : Постоянный
Битрейт : 192 Кбит/сек
Каналы : 2 канала
Расположение каналов : Front: L R
Частота : 48,0 КГц
Частота кадров : 31,250 кадров/сек (1536 SPF)
Битовая глубина : 16 бит
Метод сжатия : С потерями
Размер потока : 140 Мбайт (1%)
Заголовок : MVO | НТВ+
Язык : Russian
По умолчанию : Да
Принудительно : Нет

Аудио #2
Идентификатор : 3
Формат : AC-3
Формат/Информация : Audio Coding 3
Идентификатор кодека : A_AC3
Продолжительность : 1 ч. 42 м.
Вид битрейта : Постоянный
Битрейт : 384 Кбит/сек
Каналы : 2 канала
Расположение каналов : Front: L R
Частота : 48,0 КГц
Частота кадров : 31,250 кадров/сек (1536 SPF)
Битовая глубина : 16 бит
Метод сжатия : С потерями
Размер потока : 281 Мбайт (3%)
Заголовок : MVO | DVD Магия
Язык : Russian
По умолчанию : Нет
Принудительно : Нет

Аудио #3
Идентификатор : 4
Формат : AC-3
Формат/Информация : Audio Coding 3
Идентификатор кодека : A_AC3
Продолжительность : 1 ч. 42 м.
Вид битрейта : Постоянный
Битрейт : 192 Кбит/сек
Каналы : 2 канала
Расположение каналов : Front: L R
Частота : 48,0 КГц
Частота кадров : 31,250 кадров/сек (1536 SPF)
Битовая глубина : 16 бит
Метод сжатия : С потерями
Размер потока : 140 Мбайт (1%)
Заголовок : AVO | А. Гаврилов
Язык : Russian
По умолчанию : Нет
Принудительно : Нет

Аудио #4
Идентификатор : 5
Формат : AC-3
Формат/Информация : Audio Coding 3
Идентификатор кодека : A_AC3
Продолжительность : 1 ч. 42 м.
Вид битрейта : Постоянный
Битрейт : 384 Кбит/сек
Каналы : 2 канала
Расположение каналов : Front: L R
Частота : 48,0 КГц
Частота кадров : 31,250 кадров/сек (1536 SPF)
Битовая глубина : 16 бит
Метод сжатия : С потерями
Размер потока : 281 Мбайт (3%)
Заголовок : Original
Язык : English
По умолчанию : Нет
Принудительно : Нет

Текст #1
Идентификатор : 6
Формат : UTF-8
Идентификатор кодека : S_TEXT/UTF8
Идентификатор кодека/Информация : UTF-8 Plain Text
Язык : English
По умолчанию : Нет
Принудительно : Нет

Текст #2
Идентификатор : 7
Формат : UTF-8
Идентификатор кодека : S_TEXT/UTF8
Идентификатор кодека/Информация : UTF-8 Plain Text
Заголовок : SDH
Язык : English
По умолчанию : Нет
Принудительно : Нет

Меню
00:00:00.000 : en:Logo / Title / Interview
00:05:47.914 : en:The Wheeler Dealer
00:07:58.712 : en:Puzzling Out A Plot
00:13:40.178 : en:Elevated Bank Heist
00:18:50.571 : en:The Getaway
00:21:52.962 : en:Drop Off / Pick Up
00:25:23.172 : en:A Toast To A Genius
00:27:31.592 : en:Investigating Beauty
00:29:25.914 : en:Pressing Police
00:31:04.096 : en:Nothing To Declare
00:33:12.557 : en:Swiss Deposit
00:34:43.315 : en:Insurance Pays
00:35:38.954 : en:Meeting Miss Vicki
00:37:24.059 : en:Betting On The Green
00:39:30.018 : en:Earning Her Keep
00:40:58.648 : en:THE WINDMILLS OF YOUR MIND
00:43:47.734 : en:Smoking Out Answers
00:46:04.078 : en:"What's His Name?"
00:47:54.647 : en:Polo Play
00:50:23.462 : en:Artful Headhunting
00:56:12.311 : en:Finking On Your Man
00:57:19.378 : en:Hot-Wired Kidnapping
00:59:04.858 : en:Goodwill Bribe
01:02:20.721 : en:Icy Round Three
01:06:19.417 : en:Castle / Chess / Mating
01:16:48.796 : en:Dune Buggy Romance
01:20:26.639 : en:Fighting Back
01:27:09.082 : en:Turning Up The Heat
01:29:46.073 : en:"I Can Do It Again!"
01:33:16.741 : en:"The Last Supper"
01:36:31.311 : en:Cemetary Surprise
01:41:27.356 : en:End Credits
• Рип был найден в сети.
Сборка:



Скачать Афера.Томаса.Крауна.The.Thomas.Crown.Affair.(Норман.Джуисон).[1968.триллер.драма.мелодрама.криминал.BDRip].[1080p].[MVO]x2+[AVO]+[Оригинал.Eng]+[Sub.Eng].torrent без регистрации
Золото ЗОЛОТАЯ РАЗДАЧА! СКАЧАННОЕ НЕ ЗАСЧИТЫВАЕТСЯ! Золото
Дата: Зарегистрирован   [ Тип: внутренний ] Как тут cкачать?
MAGNET ссылка
MAGNET ссылка


Скачать .torrent

54 KB

Статус: проверено DHT
Скачан: торрент - 56 раз, раздача полностью - 3 раз
Размер: 10,68 GB
Оценка:  - (Голосов: 0)
Поблагодарили: 0
Поделиться ссылкой на эту раздачу с друзьями:
В контактеFacebookОдноклассникиTwitterLivejournalМой МирLiveinternet
 

 
Показать сообщения:    


Вы не можете начинать темы
Вы не можете отвечать на сообщения
Вы не можете редактировать свои сообщения
Вы не можете удалять свои сообщения
Вы не можете голосовать в опросах
Вы не можете прикреплять файлы к сообщениям
Вы можете скачивать файлы