Loading...
Error

Скачать Большая игра / Molly's Game (Аарон Соркин) [2017, Драма, биография, BDRip][1080p] [DUB iTunes] [R.G. GoldenShara] торрент без регистрации

Статистика раздачи
Размер:  4,3 GB   |    Скачан:  90 раз
Сидов:  7  [  0 KB/s  ]  
 
 
 
Автор Сообщение

Magnetto83

[] 


Большая игра / Molly's Game


Год выпуска: 2017
Выпущено: США, Китай | STX Entertainment, Huayi Brothers Pictures, The Mark Gordon Company
Жанр: Драма, биография
Продолжительность: 02:20:58
Перевод: Профессиональный (полное дублирование) | iTunes |
Субтитры: Русские (Полные), Английские (Full+SHD+SHD Colored)
Навигация по главам: Сохранены оригинальные главы как на Blu-ray

Слоган: «Deal with her»

Режиссер: Аарон Соркин

В ролях: Джессика Честейн, Идрис Эльба, Кевин Костнер, Майкл Сера, Джереми Стронг, Крис О`Дауд, Дж.С. МакКензи, Брайан Д`Арси Джеймс, Билл Кэмп, Грэм Грин

Описание: Молли Блум выросла с двумя братьями, каждый из которых добился колоссальных успехов в выбранных ими областях. Естественно, при таком примере девушке не оставалось ничего иного, как попытаться если и не стать лучше них, то хотя бы сравняться в достижениях. Стезей для покорения первых газетных полос стал фристайл, в котором Молли показывала неплохие успехи и даже претендовала на место в олимпийской команде США перед играми в Солт-Лейк-Сити. Увы, невероятный несчастный случай, шанс которому был один на миллион, поставил крест на ее спортивной карьере, и мисс Блум пришлось искать новую цель в жизни. По совету отца девушка решила поступить в юридическую школу, но волею судеб оказалась втянута в организацию подпольных покерных игр, открыв для себя мир очень больших и легких денег, совершенно позабыв, что бесплатный сыр бывает только в мышеловке.



Возраст: 18+ (зрителям, достигшим 18 лет. запрещено для детей)
Рейтинг MPAA: R (лицам до 17 лет обязательно присутствие взрослого)

Качество: BDRip 1080p
Формат: MKV
Видео кодек: H.264
Аудио кодек: AC3
Видео: 1920x800 (2.40:1), 4263 Кбит/с, 23.976 fps
Аудио: Русский Dolby Digital 5.1 (384 Кбит/с)


x264 [info]: frame I:1998 Avg QP:13.71 size:163270
x264 [info]: frame P:43324 Avg QP:16.29 size: 42359
x264 [info]: frame B:157459 Avg QP:18.44 size: 13011
x264 [info]: consecutive B-frames: 2.4% 2.6% 12.3% 9.0% 15.2% 45.7% 7.3% 2.4% 3.2%
x264 [total]: encoded 202781 frames, 1.32 fps, 3982.22 kb/s



General
Complete name : G:\Видео\Мои Рипы 1080p\Кино-Хиты 2017\Тоня против всех 2017 Dub Rus BDRip 1080p.mkv
Format : Matroska
Format version : Version 4 / Version 2
File size : 4.36 GiB
Duration : 1h 59mn
Overall bit rate : 5 201 Kbps
Movie name : Тоня против всех 2017 Dub Rus BDRip 1080p By R.G. GoldenShara
Encoded date : UTC 2018-04-02 20:01:58
Writing application : mkvmerge v7.0.0 ('Where We Going') 64bit built on Jun 9 2014 15:16:27
Writing library : libebml v1.3.0 + libmatroska v1.4.1
Attachements : Cover
DURATION : 01:59:51.072000000
NUMBER_OF_FRAMES : 224721
NUMBER_OF_BYTES : 402700032
_STATISTICS_WRITING_APP : mkvmerge v7.0.0 ('Where We Going') 64bit built on Jun 9 2014 15:16:27
_STATISTICS_WRITING_DATE_UTC : 2018-04-02 20:01:58
_STATISTICS_TAGS : BPS DURATION NUMBER_OF_FRAMES NUMBER_OF_BYTES

Video
ID : 1
Format : AVC
Format/Info : Advanced Video Codec
Format profile : High@L4.1
Format settings, CABAC : Yes
Format settings, ReFrames : 5 frames
Codec ID : V_MPEG4/ISO/AVC
Duration : 1h 59mn
Bit rate : 4 761 Kbps
Width : 1 920 pixels
Height : 804 pixels
Display aspect ratio : 2.40:1
Frame rate mode : Constant
Frame rate : 23.976 fps
Color space : YUV
Chroma subsampling : 4:2:0
Bit depth : 8 bits
Scan type : Progressive
Bits/(Pixel*Frame) : 0.129
Stream size : 3.90 GiB (89%)
Title : Тоня против всех 2017 BDRip 1080p By Magnetto 83
Writing library : x264 core 146 r2538 121396c
Encoding settings : cabac=1 / ref=5 / deblock=1:-2:-2 / analyse=0x3:0x113 / me=umh / subme=10 / psy=1 / psy_rd=1.00:0.00 / mixed_ref=1 / me_range=32 / chroma_me=1 / trellis=2 / 8x8dct=1 / cqm=0 / deadzone=21,11 / fast_pskip=0 / chroma_qp_offset=-2 / threads=3 / lookahead_threads=1 / sliced_threads=0 / nr=0 / decimate=1 / interlaced=0 / bluray_compat=0 / constrained_intra=0 / bframes=8 / b_pyramid=2 / b_adapt=2 / b_bias=0 / direct=3 / weightb=1 / open_gop=0 / weightp=2 / keyint=250 / keyint_min=23 / scenecut=40 / intra_refresh=0 / rc=2pass / mbtree=0 / bitrate=4761 / ratetol=1.0 / qcomp=0.60 / qpmin=0 / qpmax=69 / qpstep=4 / cplxblur=20.0 / qblur=0.5 / ip_ratio=1.40 / pb_ratio=1.30 / aq=2:1.00
Language : English
Default : Yes
Forced : No

Audio
ID : 2
Format : AC-3
Format/Info : Audio Coding 3
Mode extension : CM (complete main)
Format settings, Endianness : Big
Codec ID : A_AC3
Duration : 1h 59mn
Bit rate mode : Constant
Bit rate : 448 Kbps
Channel(s) : 6 channels
Channel positions : Front: L C R, Side: L R, LFE
Sampling rate : 48.0 KHz
Compression mode : Lossy
Stream size : 384 MiB (9%)
Title : DD 5.1 @ 448 Kbps - Дубляж | Blu-ray RUS |
Language : Russian
Default : Yes
Forced : No

Text #1
ID : 3
Format : UTF-8
Codec ID : S_TEXT/UTF8
Codec ID/Info : UTF-8 Plain Text
Title : Полные
Language : Russian
Default : No
Forced : No

Text #2
ID : 4
Format : UTF-8
Codec ID : S_TEXT/UTF8
Codec ID/Info : UTF-8 Plain Text
Title : Не цензурные
Language : Russian
Default : No
Forced : No

Text #3
ID : 5
Format : UTF-8
Codec ID : S_TEXT/UTF8
Codec ID/Info : UTF-8 Plain Text
Title : Full
Language : English
Default : No
Forced : No

Text #4
ID : 6
Format : UTF-8
Codec ID : S_TEXT/UTF8
Codec ID/Info : UTF-8 Plain Text
Title : SDH
Language : English
Default : No
Forced : No

Text #5
ID : 7
Format : UTF-8
Codec ID : S_TEXT/UTF8
Codec ID/Info : UTF-8 Plain Text
Title : Colored
Language : English
Default : No
Forced : No

Menu
00:00:00.000 : en:00:00:00.000
00:18:16.804 : en:00:18:16.804
00:36:27.685 : en:00:36:27.685
00:55:08.514 : en:00:55:08.514
01:11:49.597 : en:01:11:49.597
01:24:35.153 : en:01:24:35.153
01:36:46.968 : en:01:36:46.968
01:52:34.289 : en:01:52:34.289







Скачать Большая.игра.Molly's.Game.(Аарон.Соркин).[2017.Драма.биография.BDRip][1080p].[DUB.iTunes].[R.G.GoldenShara].torrent без регистрации
Золото ЗОЛОТАЯ РАЗДАЧА! СКАЧАННОЕ НЕ ЗАСЧИТЫВАЕТСЯ! Золото
Дата: Зарегистрирован   [ Тип: внутренний ] Как тут cкачать?
MAGNET ссылка
MAGNET ссылка


Скачать .torrent

11 KB

Статус: Τ временная раздача
Скачан: торрент - 90 раз, раздача полностью - 45 раз
Размер: 4,3 GB
Оценка:  5 (Голосов: 2)
Поблагодарили: 5
Поделиться ссылкой на эту раздачу с друзьями:
В контактеFacebookОдноклассникиTwitterLivejournalМой МирLiveinternet
 

 

Kitaec1

[] 

А где скриншоты и обложка? ми и тд.
 

Magnetto83

[] 

А кто его знает? Глюки на сайте вроде..... По этому и новых релизов нету.... Грустно как то...
 

sobmaster

[] 

М-да, неприятно... ВВ-коды не работают, открывается только текст...
 

Kitaec1

[] 

Ждем ремонта!
 

Kitaec1

[] 

Дайте знать админам об этом.
 

Natasha

[] 

Это все блокировка телеги боком вылазит!!
 

sobmaster

[] 

Natasha писал(а):

Это все блокировка телеги боком вылазит!!
Как от этого избавиться?
 
Показать сообщения:    


Вы не можете начинать темы
Вы не можете отвечать на сообщения
Вы не можете редактировать свои сообщения
Вы не можете удалять свои сообщения
Вы не можете голосовать в опросах
Вы не можете прикреплять файлы к сообщениям
Вы можете скачивать файлы