Loading...
Error

Скачать Укуренные / Up in Smoke (Лу Адлер, Томми Чонг) [1978, комедия, музыка, BDRip-AVC] [AVO (П.Гланц)]+[Оригинал]+[Sub Rus, Eng]x2 торрент без регистрации

Статистика раздачи
Размер:  2,18 GB   |    Скачан:  36 раз

Полного источника не было: 23 минуты

 
 
 
Автор Сообщение

Marsianka

[] 

Информация о фильме
Название: Укуренные
Оригинальное название: Up in Smoke
Год выхода: 1978
Жанр: комедия, музыка
Режиссер: Лу Адлер, Томми Чонг
В ролях: Чич Марин, Томми Чонг, Стразер Мартин, Эди Адамс, Харольд Фонг, Ричард Ново, Джейн Модер, Пэм Билле, Артур Робертс и др.

О фильме:
Двое незадачливых хиппи пытаются попасть в Лос-Анджелес, но, полностью укурившись, теряются где-то в Мексике. Косяки размером с хот-дог и дети цветов, перебравшие с дозой…



Страна: США
Продолжительность: 01:25:47
Перевод: Авторский (одноголосый, закадровый) П.Гланц

Файл
Кодек: h.264
Качество: BDRip-AVC
Видео: MPEG-4, 1080x460, 23.976 fps ~2548 kbps

1) AC3 6 ch, 48 kHz ~448 kbps - AVO [Гланц]
2) E-AC3 6 ch, 48 kHz ~640 kbps - Original
Субтитры: Русские, английские
General
Unique ID : 180051034021486168659827437743310974686 (0x8774915AF25AF470B338240989392EDE)
Complete name : K:VIDEOУкуренные (1978).mkv
Format : Matroska
Format version : Version 4 / Version 2
File size : 2.18 GiB
Duration : 1 h 25 min
Overall bit rate : 3 638 kb/s
Movie name : Up in Smoke (1978) BDRip-AVC от DrVampir
Encoded date : UTC 2018-05-06 14:21:50 / UTC 2018-05-06T03:53:49Z
Writing application : mkvmerge v23.0.0 ('The Bride Said No') 64-bit
Writing library : libebml v1.3.6 + libmatroska v1.4.9 / Lavf57.7.2
Cover : Yes
Attachments : Cover.jpg

Video
ID : 1
Format : AVC
Format/Info : Advanced Video Codec
Format profile : High@L4.1
Format settings : CABAC / 12 Ref Frames
Format settings, CABAC : Yes
Format settings, ReFrames : 12 frames
Codec ID : V_MPEG4/ISO/AVC
Duration : 1 h 25 min
Bit rate : 2 548 kb/s
Width : 1 080 pixels
Height : 460 pixels
Display aspect ratio : 2.35:1
Frame rate mode : Constant
Frame rate : 23.976 (24000/1001) FPS
Color space : YUV
Chroma subsampling : 4:2:0
Bit depth : 8 bits
Scan type : Progressive
Bits/(Pixel*Frame) : 0.214
Stream size : 1.49 GiB (68%)
Title : PEG-4, 1080x460, 23.976 fps ~2548 kbps
Writing library : x264 core 155 r2893 b00bcaf
Encoding settings : cabac=1 / ref=12 / deblock=1:-3:-2 / analyse=0x3:0x133 / me=umh / subme=11 / psy=1 / psy_rd=1.00:0.15 / mixed_ref=1 / me_range=56 / chroma_me=1 / trellis=2 / 8x8dct=1 / cqm=0 / deadzone=21,11 / fast_pskip=0 / chroma_qp_offset=-3 / threads=6 / lookahead_threads=1 / sliced_threads=0 / nr=0 / decimate=1 / interlaced=0 / bluray_compat=0 / constrained_intra=0 / bframes=14 / b_pyramid=2 / b_adapt=2 / b_bias=0 / direct=3 / weightb=1 / open_gop=0 / weightp=2 / keyint=240 / keyint_min=24 / scenecut=40 / intra_refresh=0 / rc_lookahead=80 / rc=2pass / mbtree=0 / bitrate=2548 / ratetol=1.0 / qcomp=0.60 / qpmin=0 / qpmax=69 / qpstep=4 / cplxblur=20.0 / qblur=0.5 / vbv_maxrate=62500 / vbv_bufsize=78125 / nal_hrd=none / filler=0 / ip_ratio=1.40 / pb_ratio=1.30 / aq=1:1.00
Language : English
Default : Yes
Forced : No
Color range : Limited
Color primaries : BT.709
Transfer characteristics : BT.709
Matrix coefficients : BT.709
Statistics Tags Issue : mkvmerge v23.0.0 ('The Bride Said No') 64-bit 2018-05-06 14:21:50 / mkvmerge v23.0.0 ('The Bride Said No') 64-bit 2018-05-06 14:21:50 / UTC 2018-05-06T03:53:49Z
FromStats_BitRate : 2547144
FromStats_Duration : 01:25:49.478000000
FromStats_FrameCount : 123464
FromStats_StreamSize : 1639557859

Audio #1
ID : 2
Format : AC-3
Format/Info : Audio Coding 3
Codec ID : A_AC3
Duration : 1 h 25 min
Bit rate mode : Constant
Bit rate : 448 kb/s
Channel(s) : 6 channels
Channel positions : Front: L C R, Side: L R, LFE
Sampling rate : 48.0 kHz
Frame rate : 31.250 FPS (1536 SPF)
Bit depth : 16 bits
Compression mode : Lossy
Stream size : 275 MiB (12%)
Title : AC3 6 ch, 48 kHz ~448 kbps - AVO [Гланц]
Language : Russian
Service kind : Complete Main
Default : Yes
Forced : No
Statistics Tags Issue : mkvmerge v23.0.0 ('The Bride Said No') 64-bit 2018-05-06 14:21:50 / mkvmerge v23.0.0 ('The Bride Said No') 64-bit 2018-05-06 14:21:50 / UTC 2018-05-06T03:53:49Z
FromStats_BitRate : 448000
FromStats_Duration : 01:25:48.640000000
FromStats_FrameCount : 160895
FromStats_StreamSize : 288323840

Audio #2
ID : 3
Format : E-AC-3
Format/Info : Enhanced Audio Coding 3
Codec ID : A_EAC3
Duration : 1 h 25 min
Bit rate mode : Constant
Bit rate : 640 kb/s
Channel(s) : 6 channels
Channel positions : Front: L C R, Side: L R, LFE
Sampling rate : 48.0 kHz
Frame rate : 187.500 FPS (256 SPF)
Compression mode : Lossy
Stream size : 393 MiB (18%)
Title : E-AC3 6 ch, 48 kHz ~640 kbps - Original
Language : English
Service kind : Complete Main
Default : No
Forced : No
Statistics Tags Issue : mkvmerge v23.0.0 ('The Bride Said No') 64-bit 2018-05-06 14:21:50 / mkvmerge v23.0.0 ('The Bride Said No') 64-bit 2018-05-06 14:21:50 / UTC 2018-05-06T03:53:49Z
FromStats_BitRate : 640000
FromStats_Duration : 01:25:49.472000000
FromStats_FrameCount : 160921
FromStats_StreamSize : 411957760

Text #1
ID : 4
Format : ASS
Codec ID : S_TEXT/ASS
Codec ID/Info : Advanced Sub Station Alpha
Compression mode : Lossless
Language : Russian
Default : No
Forced : No
Statistics Tags Issue : mkvmerge v23.0.0 ('The Bride Said No') 64-bit 2018-05-06 14:21:50 / mkvmerge v23.0.0 ('The Bride Said No') 64-bit 2018-05-06 14:21:50 / UTC 2018-05-06T03:53:49Z
FromStats_BitRate : 150
FromStats_Duration : 01:23:10.540000000
FromStats_FrameCount : 1110
FromStats_StreamSize : 93955

Text #2
ID : 5
Format : ASS
Codec ID : S_TEXT/ASS
Codec ID/Info : Advanced Sub Station Alpha
Compression mode : Lossless
Language : English
Default : No
Forced : No
Statistics Tags Issue : mkvmerge v23.0.0 ('The Bride Said No') 64-bit 2018-05-06 14:21:50 / mkvmerge v23.0.0 ('The Bride Said No') 64-bit 2018-05-06 14:21:50 / UTC 2018-05-06T03:53:49Z
FromStats_BitRate : 120
FromStats_Duration : 01:25:03.883000000
FromStats_FrameCount : 1281
FromStats_StreamSize : 77075

Menu
00:00:00.000 : :Low Rider
00:06:20.839 : :Is That a Joint Man?
00:16:36.829 : :Pulled Over / Framed
00:22:49.118 : :Searching for a Lid
00:28:54.983 : :It's a Bust
00:38:57.669 : :Smuggling a Van
00:49:56.368 : :Pot Pursuit
00:56:58.582 : :Police Dispatch
01:04:52.680 : :Rock Fight
01:15:28.816 : :"Alice Bowie"
01:21:54.910 : :Up in Smoke - Credits



Скачать Укуренные.Up.in.Smoke.(Лу.Адлер.Томми.Чонг).[1978.комедия.музыка.BDRip-AVC].[AVO.(П.Гланц)]+[Оригинал]+[Sub.Rus.Eng]x2.torrent без регистрации
Золото ЗОЛОТАЯ РАЗДАЧА! СКАЧАННОЕ НЕ ЗАСЧИТЫВАЕТСЯ! Золото
Дата: Зарегистрирован   [ Тип: внутренний ] Как тут cкачать?
MAGNET ссылка
MAGNET ссылка


Скачать .torrent

12 KB

Статус: проверено DHT
Скачан: торрент - 36 раз, раздача полностью - 7 раз
Размер: 2,18 GB
Оценка:  - (Голосов: 0)
Поблагодарили: 0
Поделиться ссылкой на эту раздачу с друзьями:
В контактеFacebookОдноклассникиTwitterLivejournalМой МирLiveinternet
 

 
Показать сообщения:    


Вы не можете начинать темы
Вы не можете отвечать на сообщения
Вы не можете редактировать свои сообщения
Вы не можете удалять свои сообщения
Вы не можете голосовать в опросах
Вы не можете прикреплять файлы к сообщениям
Вы можете скачивать файлы