Loading...
Error

Скачать Тоня против всех / I, Tonya (Крэйг Гиллеспи / Craig Gillespie) [2017, комедия, драма, биография, спорт, BDRip-AVC] [AVO] (Ю.Сербин) торрент без регистрации

Статистика раздачи
Размер:  1,47 GB   |    Скачан:  69 раз
Сидов:  1  [  0 KB/s  ]  
 
 
 
Автор Сообщение

leon030982

[] 

Тоня против всех
I, Tonya
Год выпуска: 2017
Страна: США
Жанр: комедия, драма, биография, спорт
Продолжительность: 01:59:32
Перевод: Авторский (одноголосый закадровый) Ю. Сербин
Субтитры: нет

Режиссёр: Крэйг Гиллеспи / Craig Gillespie

В ролях: Марго Робби, Себастьян Стэн, Эллисон Дженни, Джулианна Николсон, Пол Уолтер Хаузер, Бобби Каннавале, Бояна Новакович, Кэйтлин Карвер, Мэйзи Смит, МакКенна Грейс и др.

Описание: Американской фигуристке Тоне Хардинг пришлось нелегко: сначала тяжелое детство с грозной матерью, потом тяжелая юность, ранний брак с проходимцем и неудачи на соревнованиях из-за заниженных судьями оценок. А потом случился скандал: во время важнейших соревнований идея запугать конкурентку идёт не по плану…

КиноПоиск | IMDb | Sample

Качество: BDRip-AVC (Источник: I_TONYA_RUS_BLUEBIRD)
Формат: MKV
Видео: x264, 912x382 (2.40:1), 23.976 fps, ~1308 kbps avg, 0.157 bit/pixel
Аудио: Russian 48.0 KHz, АC3, 3/2 (L,C,R,l,r) + LFE ch, ~448.00 kbps avg |Сербин|

Рип - whip93.
raw [info]: 912x382p 1:1 @ 24000/1001 fps (cfr)
raw [info]: color matrix: bt709
x264 [info]: using SAR=1/1
x264 [info]: using cpu capabilities: MMX2 SSE2Fast SSSE3 SSE4.2 AVX
x264 [info]: profile High, level 4.1
x264 [info]: frame I:1193 Avg QP:17.23 size: 51398
x264 [info]: frame P:38204 Avg QP:21.33 size: 13850
x264 [info]: frame B:132566 Avg QP:23.25 size: 4390
x264 [info]: consecutive B-frames: 2.5% 3.9% 8.3% 19.8% 17.9% 29.8% 9.7% 2.2% 1.6% 1.3% 1.0% 0.3% 1.2% 0.6%
x264 [info]: mb I I16..4: 9.6% 69.7% 20.8%
x264 [info]: mb P I16..4: 1.6% 9.5% 1.7% P16..4: 53.0% 10.4% 8.1% 0.7% 0.2% skip:14.9%
x264 [info]: mb B I16..4: 0.1% 0.9% 0.2% B16..8: 41.5% 6.4% 1.9% direct: 4.4% skip:44.7% L0:43.8% L1:45.7% BI:10.5%
x264 [info]: 8x8 transform intra:73.9% inter:69.5%
x264 [info]: coded y,uvDC,uvAC intra: 80.1% 79.0% 52.0% inter: 20.4% 17.1% 2.6%
x264 [info]: i16 v,h,dc,p: 28% 30% 8% 35%
x264 [info]: i8 v,h,dc,ddl,ddr,vr,hd,vl,hu: 11% 12% 7% 9% 13% 13% 13% 11% 12%
x264 [info]: i4 v,h,dc,ddl,ddr,vr,hd,vl,hu: 11% 11% 3% 9% 14% 14% 13% 11% 13%
x264 [info]: i8c dc,h,v,p: 38% 24% 20% 18%
x264 [info]: Weighted P-Frames: Y:3.6% UV:1.8%
x264 [info]: ref P L0: 48.4% 9.0% 16.2% 5.5% 5.1% 3.1% 3.1% 1.5% 1.6% 1.1% 1.2% 0.9% 1.0% 0.7% 0.9% 0.6%
x264 [info]: ref B L0: 73.2% 10.4% 5.2% 2.7% 1.9% 1.6% 1.2% 0.8% 0.7% 0.6% 0.5% 0.5% 0.4% 0.3% 0.1%
x264 [info]: ref B L1: 94.7% 5.3%
x264 [info]: kb/s:1307.79

x264 [total]: encoded 171963 frames, 14.68 fps, 1307.80 kb/s, 1118.2 MB"]General
Unique ID : 293280466644500794653046810394956219803 (0xDCA3C36669C3F7E31CA9DBC36D7D459B)
Complete name : C:\Сериалы\I.Tonya.2017.BDRip.DD5.1.x264.-whip93.mkv
Format : Matroska
Format version : Version 4 / Version 2
File size : 1.47 GiB
Duration : 1 h 59 min
Overall bit rate : 1 756 kb/s
Movie name : Тоня против всех | I, Tonya (2017) - Release by whip93
Encoded date : UTC 2018-05-09 16:22:32
Writing application : mkvmerge v22.0.0 ('At The End Of The World') 64-bit
Writing library : libebml v1.3.5 + libmatroska v1.4.8

Video
ID : 1
Format : AVC
Format/Info : Advanced Video Codec
Format profile : High@L4.1
Format settings : CABAC / 16 Ref Frames
Format settings, CABAC : Yes
Format settings, ReFrames : 16 frames
Codec ID : V_MPEG4/ISO/AVC
Duration : 1 h 59 min
Bit rate : 1 308 kb/s
Width : 912 pixels
Height : 382 pixels
Display aspect ratio : 2.40:1
Frame rate mode : Constant
Frame rate : 23.976 (24000/1001) FPS
Color space : YUV
Chroma subsampling : 4:2:0
Bit depth : 8 bits
Scan type : Progressive
Bits/(Pixel*Frame) : 0.157
Stream size : 1.09 GiB (74%)
Title : Encoded by whip93
Writing library : x264 core 155 r2867+82 a249126 t_mod_Custom_2 [8-bit@all X86_64]
Encoding settings : cabac=1 / ref=16 / deblock=1:-3:-3 / analyse=0x3:0x133 / me=umh / subme=10 / psy=1 / fade_compensate=0.00 / psy_rd=1.00:0.08 / mixed_ref=0 / me_range=32 / chroma_me=1 / trellis=2 / 8x8dct=1 / cqm=0 / deadzone=21,11 / fast_pskip=1 / chroma_qp_offset=-3 / threads=12 / lookahead_threads=2 / sliced_threads=0 / nr=0 / decimate=1 / interlaced=0 / bluray_compat=0 / constrained_intra=0 / fgo=0 / bframes=13 / b_pyramid=2 / b_adapt=2 / b_bias=0 / direct=1 / weightb=1 / open_gop=0 / weightp=2 / keyint=250 / keyint_min=23 / scenecut=40 / intra_refresh=0 / rc_lookahead=90 / rc=crf / mbtree=1 / crf=20.0000 / qcomp=0.72 / qpmin=0:0:0 / qpmax=69:69:69 / qpstep=4 / vbv_maxrate=62500 / vbv_bufsize=78125 / crf_max=0.0 / nal_hrd=none / filler=0 / ip_ratio=1.40 / aq=1:0.80 / aq-sensitivity=10.00 / aq-factor=1.00:1.00:1.00 / aq2=0 / aq3=0
Language : English
Default : Yes
Forced : No
Color range : Limited
Color primaries : BT.709
Transfer characteristics : BT.709
Matrix coefficients : BT.709

Audio
ID : 2
Format : AC-3
Format/Info : Audio Coding 3
Codec ID : A_AC3
Duration : 1 h 59 min
Bit rate mode : Constant
Bit rate : 448 kb/s
Channel(s) : 6 channels
Channel positions : Front: L C R, Side: L R, LFE
Sampling rate : 48.0 kHz
Frame rate : 31.250 FPS (1536 SPF)
Bit depth : 16 bits
Compression mode : Lossy
Stream size : 383 MiB (26%)
Title : AVO (Сербин)
Language : Russian
Service kind : Complete Main
Default : Yes
Forced : No

Menu
00:00:00.000 : en:Chapter 1
00:03:22.619 : en:Chapter 2
00:16:16.350 : en:Chapter 3
00:28:27.163 : en:Chapter 4
00:42:05.648 : en:Chapter 5
00:54:49.119 : en:Chapter 6
01:11:55.561 : en:Chapter 7
01:25:28.623 : en:Chapter 8
01:39:54.530 : en:Chapter 9



Скачать Тоня.против.всех.I.Tonya.(Крэйг.Гиллеспи.Craig.Gillespie).[2017.комедия.драма.биография.спорт.BDRip-AVC].[AVO].(Ю.Сербин).torrent без регистрации
Золото ЗОЛОТАЯ РАЗДАЧА! СКАЧАННОЕ НЕ ЗАСЧИТЫВАЕТСЯ! Золото
Дата: Зарегистрирован   [ Тип: внутренний ] Как тут cкачать?
MAGNET ссылка
MAGNET ссылка


Скачать .torrent

30 KB

Статус: проверено DHT
Скачан: торрент - 69 раз, раздача полностью - 60 раз
Размер: 1,47 GB
Оценка:  - (Голосов: 0)
Поблагодарили: 1
Поделиться ссылкой на эту раздачу с друзьями:
В контактеFacebookОдноклассникиTwitterLivejournalМой МирLiveinternet
 

 
Показать сообщения:    


Вы не можете начинать темы
Вы не можете отвечать на сообщения
Вы не можете редактировать свои сообщения
Вы не можете удалять свои сообщения
Вы не можете голосовать в опросах
Вы не можете прикреплять файлы к сообщениям
Вы можете скачивать файлы