Loading...
Error

Скачать Время первых / Space Walker (Дмитрий Киселёв) [2017, Триллер, приключения, BDRip][1080p] [Оригинал Лицензия] [GER Transfer] [R.G. GoldenShara] торрент без регистрации

Статистика раздачи
Размер:  4,37 GB   |    Скачан:  177 раз
Сидов:  2  [  0 KB/s  ]  
 
 
 
Автор Сообщение

Magnetto83

[] 


Время первых / Space Walker


Год выпуска: 2017
Выпущено: Россия, Базелевс Продакшн, CGF
Жанр: Триллер, приключения, реальные события
Продолжительность: 02:16:57
Озвучивание: Оригинальное | Лицензия Blu-ray GER |
Субтитры: Отсутствуют
Навигация по главам: Сохранены оригинальные главы как на Blu-ray

Слоган: «Подними голову!»

Режиссер: Дмитрий Киселёв

В ролях: Евгений Миронов, Константин Хабенский, Владимир Ильин, Анатолий Котенёв, Александра Урсуляк, Елена Панова, Александр Новин, Марта Тимофеева, Геннадий Смирнов, Юрий Нифонтов

Описание: 60-е. Разгар холодной войны. Две супердержавы, СССР и США бьются за первенство в космической гонке. Пока СССР впереди, на очереди — выход человека в открытый космос. За две недели до старта взрывается тестовый корабль. Времени на выявление причин нет. И пусть риски огромны, мы не можем уступить лидерство. Опытный военный летчик Павел Беляев и его напарник Алексей Леонов, необстрелянный и горячий, мечтающий о подвиге, — два человека, готовые шагнуть в неизвестность. Но никто не мог даже предположить всего, с чем им предстояло столкнуться в полете. В этой миссии все, что только можно, пошло не так.



Возраст: 6+

Качество: BDRip 1080p
Формат: MKV
Видео кодек: H.264
Аудио кодек: AC3
Видео: 1920x812 (2.40:1), 5210 Кбит/с, 23.976 fps
Аудио: Русский Dolby Digital 5.1 (448 Кбит/с)


x264 [info]: frame I:1738 Avg QP:16.89 size:150651
x264 [info]: frame P:47125 Avg QP:19.51 size: 42854
x264 [info]: frame B:148151 Avg QP:22.01 size: 13134
x264 [info]: consecutive B-frames: 2.9% 3.4% 14.7% 18.9% 20.5% 35.6% 2.4% 0.8% 0.8%
x264 [total]: encoded 197014 frames, 2.41 fps, 4115.47 kb/s



General
Complete name : G:\Видео\Мои Рипы 1080p Русские\Кино-Хиты 2017\Время Первых 2017 Original Rus BDRip 1080p.mkv
Format : Matroska
Format version : Version 4 / Version 2
File size : 4.37 GiB
Duration : 2h 16mn
Overall bit rate : 4 565 Kbps
Movie name : Время Первых 2017 Original Rus BDRip 1080p By R.G.GoldenShara Ger Transfer
Encoded date : UTC 2017-11-26 22:57:40
Writing application : mkvmerge v7.0.0 ('Where We Going') 64bit built on Jun 9 2014 15:16:27
Writing library : libebml v1.3.0 + libmatroska v1.4.1
Attachements : Cover.jpg
DURATION : 02:16:57.184000000
NUMBER_OF_FRAMES : 256787
NUMBER_OF_BYTES : 460162304
_STATISTICS_WRITING_APP : mkvmerge v7.0.0 ('Where We Going') 64bit built on Jun 9 2014 15:16:27
_STATISTICS_WRITING_DATE_UTC : 2017-11-26 22:57:40
_STATISTICS_TAGS : BPS DURATION NUMBER_OF_FRAMES NUMBER_OF_BYTES

Video
ID : 1
Format : AVC
Format/Info : Advanced Video Codec
Format profile : High@L4.1
Format settings, CABAC : Yes
Format settings, ReFrames : 5 frames
Codec ID : V_MPEG4/ISO/AVC
Duration : 2h 16mn
Bit rate : 4 116 Kbps
Width : 1 920 pixels
Height : 812 pixels
Display aspect ratio : 2.35:1
Frame rate mode : Constant
Frame rate : 23.976 fps
Color space : YUV
Chroma subsampling : 4:2:0
Bit depth : 8 bits
Scan type : Progressive
Bits/(Pixel*Frame) : 0.110
Stream size : 3.85 GiB (88%)
Title : Время Первых 2017 BDRip 1080p By Magnetto 83
Writing library : x264 core 146 r2538 121396c
Encoding settings : cabac=1 / ref=5 / deblock=1:-1:-1 / analyse=0x3:0x113 / me=umh / subme=10 / psy=1 / psy_rd=1.00:0.00 / mixed_ref=1 / me_range=32 / chroma_me=1 / trellis=2 / 8x8dct=1 / cqm=0 / deadzone=21,11 / fast_pskip=0 / chroma_qp_offset=-2 / threads=3 / lookahead_threads=1 / sliced_threads=0 / nr=0 / decimate=1 / interlaced=0 / bluray_compat=0 / constrained_intra=0 / bframes=8 / b_pyramid=2 / b_adapt=2 / b_bias=0 / direct=3 / weightb=1 / open_gop=0 / weightp=2 / keyint=250 / keyint_min=23 / scenecut=40 / intra_refresh=0 / rc=2pass / mbtree=0 / bitrate=4116 / ratetol=1.0 / qcomp=0.60 / qpmin=0 / qpmax=69 / qpstep=4 / cplxblur=20.0 / qblur=0.5 / ip_ratio=1.40 / pb_ratio=1.30 / aq=2:1.00
Language : German
Default : Yes
Forced : No

Audio
ID : 2
Format : AC-3
Format/Info : Audio Coding 3
Mode extension : CM (complete main)
Format settings, Endianness : Big
Codec ID : A_AC3
Duration : 2h 16mn
Bit rate mode : Constant
Bit rate : 448 Kbps
Channel(s) : 6 channels
Channel positions : Front: L C R, Side: L R, LFE
Sampling rate : 48.0 KHz
Compression mode : Lossy
Stream size : 439 MiB (10%)
Title : DD 5.1 @ 448 kbps - Оригинал | Лицензия Blu-ray GER |
Language : Russian
Default : Yes
Forced : No

Menu
00:00:00.000 : ru:Chapter 01
00:09:43.249 : ru:Chapter 02
00:18:49.169 : ru:Chapter 03
00:30:08.056 : ru:Chapter 04
00:41:19.894 : ru:Chapter 05
00:51:33.924 : ru:Chapter 06
01:00:20.783 : ru:Chapter 07
01:09:47.308 : ru:Chapter 08
01:18:29.538 : ru:Chapter 09
01:30:06.901 : ru:Chapter 10
01:39:16.158 : ru:Chapter 11
01:49:17.175 : ru:Chapter 12
02:00:26.469 : ru:Chapter 13
02:11:54.740 : ru:Chapter 14







Скачать Время.первых.Space.Walker.(Дмитрий.Киселёв).[2017.Триллер.приключения.BDRip][1080p].[Оригинал.Лицензия].[GER.Transfer].[R.G.GoldenShara].torrent без регистрации
Золото ЗОЛОТАЯ РАЗДАЧА! СКАЧАННОЕ НЕ ЗАСЧИТЫВАЕТСЯ! Золото
Дата: Зарегистрирован   [ Тип: внутренний ] Как тут cкачать?
MAGNET ссылка
MAGNET ссылка


Скачать .torrent

11 KB

Статус: проверено
Скачан: торрент - 177 раз, раздача полностью - 223 раз
Размер: 4,37 GB
Оценка:  5 (Голосов: 6)
Поблагодарили: 17
Поделиться ссылкой на эту раздачу с друзьями:
В контактеFacebookОдноклассникиTwitterLivejournalМой МирLiveinternet
 

 

wuwechka

[] 

ay Название фильма прям про Magnetto83. Всегда первый.
 

Magnetto83

[] 

wuwechka писал(а):

ay Название фильма прям про Magnetto83. Всегда первый.
ah Прям засмущали.... ad Спасибо! bs
 

OlegRo

[] 

Какая-то укороченная немецкая версия. Вот нахрена эти немецкие заставки, и какой нахрен Spacewalker? Как-то показывали по TV, там всё было замечательно, а этот вариант огорчил до невозможности. Естественно, к Magnetto претензий быть не может, здесь всё на высоте. Спасибо большое. Жаль, но такую версию себе не оставлю ac
 
Показать сообщения:    


Вы не можете начинать темы
Вы не можете отвечать на сообщения
Вы не можете редактировать свои сообщения
Вы не можете удалять свои сообщения
Вы не можете голосовать в опросах
Вы не можете прикреплять файлы к сообщениям
Вы можете скачивать файлы