Loading...
Error

Скачать Анон / Anon (Эндрю Никкол) [2018, Фантастика, триллер, WEBRip 1080p] [MVO] (HDrezka Studio) торрент без регистрации

Статистика раздачи
Размер:  3,63 GB   |    Скачан:  288 раз
Сидов:  1  [  0 KB/s  ]  
 
 
 
Автор Сообщение

leon030982

[] 

Информация о фильме

Название: Анон
Оригинальное название: Anon

Год выхода: 2018
Жанр: Фантастика, триллер
Страна: Германия, США
Студия: K5 Film, K5 International, K5 Media Group
Продолжительность: 01:40:10
Перевод: Профессиональный (многоголосый, закадровый) | HDrezka Studio

Режиссер: Эндрю Никкол

В ролях: Клайв Оуэн, Аманда Сайфред, Колм Фиор, Соня Уолгер, Марк О’Брайэн, Джо Пинг, Иддо Голдберг, Себастьян Пижотт, Рэйчел Робертс (I), Этан Таварес

О фильме:

Идеальное общество будущего: режим тотального надзора, отсутствие личной жизни, приватных территорий и гражданских прав. Казалось бы, в полностью контролируемом государстве нет места ошибкам и правонарушениям. Но однажды детектив Сол Фриленд знакомится с девушкой, которая не числится в базах данных. Перед копом приоткрывается дверь преступного мира новой эры…



Файл

Кодек: H.264
Качество: WEBRip 1080p | HDrezka Studio
Видео: AVC/H.264, 1920x1080, ~4640 kbps, 24 fps
Звук: Аудио 1: AC3, 2 ch, 192 Kbps - Русский
Звук: Аудио 2: AC3, 6 ch, 384 Kbps - Английский
Субтитры: Русские (форсированные), английские
Общее

Уникальный идентификатор : 232089983103968311294421981359866284501 (0xAE9AE7A2A04259E08387F20331E289D5)

Полное имя : Anon.2018.WEBRip.1080p.mkv

Формат : Matroska

Версия формата : Version 4 / Version 2

Размер файла : 3,63 Гбайт

Продолжительность : 1 ч. 40 м.

Режим общего битрейта : Переменный

Общий поток : 5191 Кбит/сек

Дата кодирования : UTC 2018-05-10 16:29:19

Программа кодирования : mkvmerge v17.0.0 ('Be Ur Friend') 64-bit

Библиотека кодирования : libebml v1.3.5 + libmatroska v1.4.8

Видео

Идентификатор : 1

Формат : AVC

Формат/Информация : Advanced Video Codec

Профиль формата : Main@L4

Настройки формата : CABAC / 3 Ref Frames

Параметр CABAC формата : Да

Параметр RefFrames формата : 3 кадра

Идентификатор кодека : V_MPEG4/ISO/AVC

Продолжительность : 1 ч. 40 м.

Вид битрейта : Переменный

Битрейт : 4640 Кбит/сек

Максимальный битрейт : 6960 Кбит/сек

Ширина : 1920 пикселей

Высота : 1080 пикселей

Соотношение сторон : 16:9

Режим частоты кадров : Постоянный

Частота кадров : 24,000 кадра/сек

Цветовое пространство : YUV

Субдискретизация насыщенности : 4:2:0

Битовая глубина : 8 бит

Тип развёртки : Прогрессивная

Бит/(Пиксели*Кадры) : 0.093

Размер потока : 3,23 Гбайт (89%)

Библиотека кодирования : x264 core 148 r2715 7e75228

Настройки программы : cabac=1 / ref=3 / deblock=1:0:0 / analyse=0x1:0x111 / me=umh / subme=10 / psy=1 / psy_rd=1.00:0.00 / mixed_ref=1 / me_range=24 / chroma_me=1 / trellis=2 / 8x8dct=0 / cqm=0 / deadzone=21,11 / fast_pskip=1 / chroma_qp_offset=-2 / threads=8 / lookahead_threads=1 / sliced_threads=0 / nr=0 / decimate=1 / interlaced=0 / bluray_compat=0 / stitchable=1 / constrained_intra=0 / bframes=2 / b_pyramid=0 / b_adapt=2 / b_bias=0 / direct=3 / weightb=1 / open_gop=0 / weightp=2 / keyint=48 / keyint_min=25 / scenecut=0 / intra_refresh=0 / rc_lookahead=48 / rc=2pass / mbtree=1 / bitrate=4640 / ratetol=1.0 / qcomp=0.50 / qpmin=6 / qpmax=51 / qpstep=4 / cplxblur=20.0 / qblur=0.5 / vbv_maxrate=6960 / vbv_bufsize=9280 / nal_hrd=vbr / filler=0 / ip_ratio=1.40 / aq=1:1.00

Язык : English

Default : Да

Forced : Нет

Аудио #1

Идентификатор : 2

Формат : AC-3

Формат/Информация : Audio Coding 3

Идентификатор кодека : A_AC3

Продолжительность : 1 ч. 40 м.

Вид битрейта : Постоянный

Битрейт : 192 Кбит/сек

Каналы : 2 канала

Расположение каналов : Front: L R

Частота : 48,0 КГц

Частота кадров : 31,250 кадров/сек (1536 SPF)

Битовая глубина : 16 бит

Метод сжатия : С потерями

Размер потока : 138 Мбайт (4%)

Заголовок : MVO | HDrezka Studio

Язык : Russian

ServiceKind : Complete Main

Default : Да

Forced : Нет

Аудио #2

Идентификатор : 3

Формат : AC-3

Формат/Информация : Audio Coding 3

Идентификатор кодека : A_AC3

Продолжительность : 1 ч. 40 м.

Вид битрейта : Постоянный

Битрейт : 384 Кбит/сек

Каналы : 6 каналов

Расположение каналов : Front: L C R, Side: L R, LFE

Частота : 48,0 КГц

Частота кадров : 31,250 кадров/сек (1536 SPF)

Битовая глубина : 16 бит

Метод сжатия : С потерями

Размер потока : 275 Мбайт (7%)

Язык : English

ServiceKind : Complete Main

Default : Нет

Forced : Нет

Текст #1

Идентификатор : 4

Формат : UTF-8

Идентификатор кодека : S_TEXT/UTF8

Идентификатор кодека/Информация : UTF-8 Plain Text

Продолжительность : 1 ч. 28 м.

Битрейт : 3 бит/сек

ElementCount : 58

Размер потока : 2,44 Кбайт (0%)

Заголовок : Forced (от Ash61)

Язык : Russian

Default : Да

Forced : Нет

Текст #2

Идентификатор : 5

Формат : UTF-8

Идентификатор кодека : S_TEXT/UTF8

Идентификатор кодека/Информация : UTF-8 Plain Text

Продолжительность : 1 ч. 28 м.

Битрейт : 37 бит/сек

ElementCount : 855

Размер потока : 24,1 Кбайт (0%)

Заголовок : Full

Язык : English

Default : Нет

Forced : Нет

Текст #3

Идентификатор : 6

Формат : UTF-8

Идентификатор кодека : S_TEXT/UTF8

Идентификатор кодека/Информация : UTF-8 Plain Text

Продолжительность : 1 ч. 29 м.

Битрейт : 38 бит/сек

ElementCount : 912

Размер потока : 25,2 Кбайт (0%)

Заголовок : SDH

Язык : English

Default : Нет

Forced : Нет



Скачать Анон.Anon.(Эндрю.Никкол).[2018.Фантастика.триллер.WEBRip.1080p].[MVO].(HDrezka.Studio).torrent без регистрации
Золото ЗОЛОТАЯ РАЗДАЧА! СКАЧАННОЕ НЕ ЗАСЧИТЫВАЕТСЯ! Золото
Дата: Зарегистрирован   [ Тип: внутренний ] Как тут cкачать?
MAGNET ссылка
MAGNET ссылка


Скачать .torrent

19 KB

Статус: проверено DHT
Скачан: торрент - 288 раз, раздача полностью - 556 раз
Размер: 3,63 GB
Оценка:  5 (Голосов: 1)
Поблагодарили: 4
Поделиться ссылкой на эту раздачу с друзьями:
В контактеFacebookОдноклассникиTwitterLivejournalМой МирLiveinternet
 

 
Показать сообщения:    


Вы не можете начинать темы
Вы не можете отвечать на сообщения
Вы не можете редактировать свои сообщения
Вы не можете удалять свои сообщения
Вы не можете голосовать в опросах
Вы не можете прикреплять файлы к сообщениям
Вы можете скачивать файлы