Loading...
Error

Скачать Первому игроку приготовиться / Ready Player One (Стивен Спилберг) [2018, фантастика, боевик, приключения, WEB-DL 1080p] [Ukr DUB] + [Orig] (Eng) торрент без регистрации

Статистика раздачи
Размер:  5,04 GB   |    Скачан:  197 раз
Сидов:  77  [  0 KB/s  ]   Личеров:  26  [  0 KB/s  ]  
 
 
 
Автор Сообщение

leon030982

[] 

Первому игроку приготовиться / Ready Player One




Год выхода : 2018
Жанр : фантастика, боевик, приключения
Страна : США
Продолжительность : 02:19:55
Перевод: Украинский (дублированный)
Субтитры : украинские (форсированные), английские

Режиссер : Стивен Спилберг

В главных ролях: Тай Шеридан, Оливия Кук, Бен Мендельсон, Лина Уэйте, ТиДжей Миллер, Саймон Пегг, Марк Райлэнс, Philip Zhao, Уин Морисаки, Ханна Джон-Кэймен

Описание: Действие фильма происходит в 2045 году, мир погружается в хаос и находится на грани коллапса. Люди ищут спасения в игре OASIS — огромной вселенной виртуальной реальности. Ее создатель, гениальный и эксцентричный Джеймс Холлидэй, оставляет уникальное завещание. Все его колоссальное состояние получит игрок, первым обнаруживший цифровое «пасхальное яйцо», которое миллиардер спрятал где-то на просторах OASISа. Запущенный им квест охватывает весь мир. Совершенно негероический парень по имени Уэйд Уоттс решает принять участие в состязании, с головой бросаясь в головокружительную, искажающую реальность погоню за сокровищами по фантастической вселенной, полной загадок, открытий и опасностей.



Файл
Качество : WEB-DL 1080p
Формат видео : MKV
Видео : 1920x800, ~4582 kbps avg
Аудио 1 : 48.0 kHz, AC3, 2 ch, ~192 kbps - Ukr DUB
Аудио 2 : 44.1 kHz, AC3, 6 ch, ~384 kbps - Eng

Релиз --
204753092451843226662895863469616807694 (0x9A0A02DDBBDA632CACE6637C8A9A3F0E)
Complete name : E:\Ready Player One (2018) WEB-DL 1080p [UKR_ENG] [Hurtom].mkv
Format : Matroska
Format version : Version 4 / Version 2
File size : 5.04 GiB
Duration : 2 h 19 min
Overall bit rate : 5 160 kb/s
Encoded date : UTC 2018-06-19 18:53:12
Writing application : mkvmerge v14.0.0 ('Flow') 64bit
Writing library : libebml v1.3.4 + libmatroska v1.4.5
Cover : Yes
Attachments : cover

Video
ID : 1
Format : AVC
Format/Info : Advanced Video Codec
Format profile : High@L4
Format settings : CABAC / 5 Ref Frames
Format settings, CABAC : Yes
Format settings, RefFrames : 5 frames
Codec ID : V_MPEG4/ISO/AVC
Duration : 2 h 19 min
Bit rate : 4 481 kb/s
Width : 1 920 pixels
Height : 800 pixels
Display aspect ratio : 2.40:1
Frame rate mode : Constant
Frame rate : 23.976 (24000/1001) FPS
Color space : YUV
Chroma subsampling : 4:2:0
Bit depth : 8 bits
Scan type : Progressive
Bits/(Pixel*Frame) : 0.122
Stream size : 4.38 GiB (87%)
Language : English
Default : Yes
Forced : No
Color range : Limited
Color primaries : BT.709
Transfer characteristics : BT.709
Matrix coefficients : BT.709

Audio #1
ID : 2
Format : AC-3
Format/Info : Audio Coding 3
Format settings, Endianness : Big
Codec ID : A_AC3
Duration : 2 h 19 min
Bit rate mode : Constant
Bit rate : 192 kb/s
Channel(s) : 2 channels
Channel positions : Front: L R
Sampling rate : 48.0 kHz
Frame rate : 31.250 FPS (1536 SPF)
Bit depth : 16 bits
Compression mode : Lossy
Delay relative to video : -42 ms
Stream size : 192 MiB (4%)
Title : AC3 2.0 @ 192 kbps
Language : Ukrainian
Service kind : Complete Main
Default : Yes
Forced : Yes

Audio #2
ID : 3
Format : AC-3
Format/Info : Audio Coding 3
Format settings, Endianness : Big
Codec ID : A_AC3
Duration : 2 h 19 min
Bit rate mode : Constant
Bit rate : 384 kb/s
Channel(s) : 6 channels
Channel positions : Front: L C R, Side: L R, LFE
Sampling rate : 48.0 kHz
Frame rate : 31.250 FPS (1536 SPF)
Bit depth : 16 bits
Compression mode : Lossy
Delay relative to video : -42 ms
Stream size : 384 MiB (7%)
Title : AC3 5.1 @ 384 kbps
Language : English
Service kind : Complete Main
Default : No
Forced : No

Text #1
ID : 4
Format : UTF-8
Codec ID : S_TEXT/UTF8
Codec ID/Info : UTF-8 Plain Text
Title : Forced
Language : Ukrainian
Default : Yes
Forced : Yes

Text #2
ID : 5
Format : UTF-8
Codec ID : S_TEXT/UTF8
Codec ID/Info : UTF-8 Plain Text
Title : Full
Language : English
Default : No
Forced : No

Menu
00:00:00.000 : en:1
00:09:49.798 : en:2
00:21:31.666 : en:3
00:34:19.141 : en:4
00:44:03.934 : en:5
00:58:29.174 : en:6
01:11:17.192 : en:7
01:21:53.745 : en:8
01:32:33.968 : en:9



Скачать Первому.игроку.приготовиться.Ready.Player.One.(Стивен.Спилберг).[2018.фантастика.боевик.приключения.WEB-DL.1080p].[Ukr.DUB].+.[Orig].(Eng).torrent без регистрации
Золото ЗОЛОТАЯ РАЗДАЧА! СКАЧАННОЕ НЕ ЗАСЧИТЫВАЕТСЯ! Золото
Дата: Зарегистрирован   [ Тип: внешний ] Как тут cкачать?
MAGNET ссылка
MAGNET ссылка


Скачать .torrent

13 KB

Статус: проверено DHT
Скачан: торрент - 197 раз, раздача полностью - 11 раз
Размер: 5,04 GB
Оценка:  5 (Голосов: 1)
Поблагодарили: 8
Поделиться ссылкой на эту раздачу с друзьями:
В контактеFacebookОдноклассникиTwitterLivejournalМой МирLiveinternet
 

 
Показать сообщения:    


Вы не можете начинать темы
Вы не можете отвечать на сообщения
Вы не можете редактировать свои сообщения
Вы не можете удалять свои сообщения
Вы не можете голосовать в опросах
Вы не можете прикреплять файлы к сообщениям
Вы можете скачивать файлы