Loading...
Error

Скачать Мир Дикого запада / Westworld (Сезон 02) (Джонатан Нолан, Джонни Кэмпбелл, Ричард Дж. Льюис) [2018, фантастика, триллер, вестерн, WEB-DL 1080p] [MVO] (FilmsClub) торрент без регистрации

Статистика раздачи
Размер:  58,03 GB   |    Скачан:  65 раз
Сидов:  1  [  0 KB/s  ]  
 
 
 
Автор Сообщение

leon030982

[] 



═╬ Мир Дикого запада / Westworld ╬═


Информация о фильме

✦ Год выхода: 2018
✦ Жанр: фантастика, триллер, вестерн
✦ Выпушено: США, Bad Robot, Jerry Weintraub Productions, Kilter Films, Warner Bros. Television
✦ Продолжительность: ~ 01:00:00 серия
✦ Перевод: Профессиональный (многоголосый, закадровый) [FilmsClub]
✦ Субтитры: английские

✦ Режиссер: Джонатан Нолан, Джонни Кэмпбелл, Ричард Дж. Льюис
✦ Сценарий: Майкл Крайтон, Джонатан Нолан, Лиза Джой

✦ В ролях: Энтони Хопкинс, Эд Харрис, Эван Рэйчел Вуд, Джеймс Марсден, Тэнди Ньютон, Джеффри Райт, Тесса Томпсон, Джимми Симпсон, Родриго Санторо, Шеннон Мари Вудворд

Описание фильма
В футуристическом парке развлечений андроиды на фоне для исторических декораций становятся рабами людей, выполняя рутинные задания, пока в один момент сбой в программе не превращает их в опасных убийц.



Информация о файле

✦ Качество: WEB-DL 1080p
✦ Формат: MKV
✦ Видео: 1920x1080(16:9), 23.976 fps, MPEG-4 AVC ~10000 kbps avg
✦ Аудио Rus: 48 kHz, AC3 Dolby Digital, 3/2 (L,C,R,l,r) + LFE ch, ~640.00 kbps
✦ Аудио Eng: 48 kHz, E-AC3 Dolby Digital, 3/2 (L,C,R,l,r) + LFE ch, ~640.00 kbps
General
Unique ID : 300588923169877452386921786165582706984 (0xE22352207FCA344D361F23742AB53928)
Complete name : F:\Westworld.S02.1080p.films.club\Westworld.S02E02.Reunion.1080p.WEB-DL.DDP5.1.H.264.films.club.mkv
Format : Matroska
Format version : Version 4 / Version 2
File size : 4.70 GiB
Duration : 59 min 36 s
Overall bit rate mode : Variable
Overall bit rate : 11.3 Mb/s
Encoded date : UTC 2018-05-03 06:24:47
Writing application : mkvmerge v23.0.0 ('The Bride Said No') 64-bit
Writing library : libebml v1.3.6 + libmatroska v1.4.9

Video
ID : 1
Format : AVC
Format/Info : Advanced Video Codec
Format profile : High@L4
Format settings : CABAC / 4 Ref Frames
Format settings, CABAC : Yes
Format settings, RefFrames : 4 frames
Codec ID : V_MPEG4/ISO/AVC
Duration : 59 min 36 s
Bit rate mode : Variable
Bit rate : 10.0 Mb/s
Maximum bit rate : 15.0 Mb/s
Width : 1 920 pixels
Height : 1 080 pixels
Display aspect ratio : 16:9
Frame rate mode : Constant
Frame rate : 23.976 (24000/1001) FPS
Color space : YUV
Chroma subsampling : 4:2:0
Bit depth : 8 bits
Scan type : Progressive
Bits/(Pixel*Frame) : 0.202
Stream size : 4.18 GiB (89%)
Default : Yes
Forced : No
Color range : Limited
Color primaries : BT.709
Transfer characteristics : BT.709
Matrix coefficients : BT.709

Audio #1
ID : 2
Format : AC-3
Format/Info : Audio Coding 3
Format settings, Endianness : Big
Codec ID : A_AC3
Duration : 59 min 36 s
Bit rate mode : Constant
Bit rate : 384 kb/s
Channel(s) : 6 channels
Channel positions : Front: L C R, Side: L R, LFE
Sampling rate : 48.0 kHz
Frame rate : 31.250 FPS (1536 SPF)
Bit depth : 16 bits
Compression mode : Lossy
Stream size : 164 MiB (3%)
Title : films.club
Language : Russian
Service kind : Complete Main
Default : Yes
Forced : No

Audio #2
ID : 3
Format : E-AC-3
Format/Info : Enhanced Audio Coding 3
Format settings, Endianness : Big
Codec ID : A_EAC3
Duration : 59 min 36 s
Bit rate mode : Constant
Bit rate : 640 kb/s
Channel(s) : 6 channels
Channel positions : Front: L C R, Side: L R, LFE
Sampling rate : 48.0 kHz
Frame rate : 187.500 FPS (256 SPF)
Compression mode : Lossy
Delay relative to video : 8 ms
Stream size : 273 MiB (6%)
Language : English
Service kind : Complete Main
Default : No
Forced : No

Text #1
ID : 4
Format : UTF-8
Codec ID : S_TEXT/UTF8
Codec ID/Info : UTF-8 Plain Text
Language : English
Default : No
Forced : No

Text #2
ID : 5
Format : UTF-8
Codec ID : S_TEXT/UTF8
Codec ID/Info : UTF-8 Plain Text
Title : SDH
Language : English
Default : No
Forced : No

Menu
00:00:00.000 : en:Ratings
00:00:02.112 : en:Previously On
00:00:56.112 : en:Studio Logo
00:01:02.112 : en:It looks like the stars have been scattered across the ground
00:07:22.112 : en:Opening Credits
00:09:02.112 : en:Logan meets Akecheta
00:19:18.112 : en:Teddy has his eyes opened
00:21:35.112 : en:Lawrence receives help from the man in black
00:28:28.112 : en:Dolores gains information
00:30:40.112 : en:William's business proposal
00:35:00.112 : en:You don't need God's favor to get to Glory
00:42:02.112 : en:Retirement party
00:46:33.112 : en:The man in black looks for his army
00:53:06.112 : en:William confides in Dolores
00:56:01.112 : en:Dolores closes in on her objective
00:57:40.112 : en:End Credits
00:58:51.112 : en:Next Episode
Когда раздача ведётся путём добавления новых серий, при каждом добавлении создётся новый торрент. Чтобы начать докачку новой серии, пользователям необходимо сделать следующее:
(1) остановить скачивание,
(2) удалить старый торрент у себя из клиента (старые серии удалять не надо),
(3) скачать новый торрент и запустить его у себя в клиенте вместо старого, при этом указать клиенту путь в старую папку, куда и должно происходить скачивание новых серий.
Ваш клиент при этом должен произвести хеширование (проверку) старой папки (если не производит сам - помогите ему сделать это), и будет докачивать только те серии, которых у вас ещё нет. Старые серии при этом не удаляются, а продолжают раздаваться!
Eсли вы уже удалили старые серии, то предотвратить повторную закачку старых серий можно, отжав галочку в соответсвующих местах при запуске нового торрента. По возможности, желательно не удалять старые серии как можно дольше, чтобы релизёр не столько продолжал раздавать старые серии, а смог сконцентрироваться на новых.




Скачать Мир.Дикого.запада.Westworld.(Сезон.02).(Джонатан.Нолан.Джонни.Кэмпбелл.Ричард.Дж.Льюис).[2018.фантастика.триллер.вестерн.WEB-DL.1080p].[MVO].(FilmsClub).torrent без регистрации
Золото ЗОЛОТАЯ РАЗДАЧА! СКАЧАННОЕ НЕ ЗАСЧИТЫВАЕТСЯ! Золото
Дата: Зарегистрирован   [ Тип: внутренний ] Как тут cкачать?
MAGNET ссылка
MAGNET ссылка


Скачать .torrent

292 KB

Статус: проверено DHT
Скачан: торрент - 65 раз, раздача полностью - 1 раз
Размер: 58,03 GB
Оценка:  - (Голосов: 0)
Поблагодарили: 0
Поделиться ссылкой на эту раздачу с друзьями:
В контактеFacebookОдноклассникиTwitterLivejournalМой МирLiveinternet
 

 
Показать сообщения:    


Вы не можете начинать темы
Вы не можете отвечать на сообщения
Вы не можете редактировать свои сообщения
Вы не можете удалять свои сообщения
Вы не можете голосовать в опросах
Вы не можете прикреплять файлы к сообщениям
Вы можете скачивать файлы