Loading...
Error

Скачать Винчестер. Дом, который построили призраки / Winchester: The House that Ghosts Built (Майкл Спириг, Питер Спириг) [2018, ужасы, фэнтези, триллер, детектив, биография, BDRip] [1080p] [Dub] [Лицензия] [iTunes] [R.G. Goldenshara] торрент без регистрации

Статистика раздачи
Размер:  4,33 GB   |    Скачан:  86 раз
Сидов:  5  [  0 KB/s  ]  
 
 
 
Автор Сообщение

sobmaster

[] 



Винчестер. Дом, который построили призраки
Winchester: The House that Ghosts Built




Год выпуска: 2018
Страна: Австралия , США
Выпущено: Blacklab Entertainment
Слоган: «Самый зловещий особняк в истории человечества»
Жанр: ужасы, фэнтези, триллер, детектив, биография

Продолжительность: 01:39:30
Перевод: Профессиональный (полное дублирование) (iTunes)
Режиссер: Майкл Спириг, Питер Спириг
Сценарий: Том Вон, Майкл Спириг, Питер Спириг
Продюсер: Тобин Армруст, Майкл Бертон, Бенедикт Карвер
Оператор: Бен Нотт
Композитор: Питер Спириг
Художник: Мэттью Путленд, Джени Паркер, Марк Уоррен
Монтаж: Мэтт Вилла
В ролях:


Хелен Миррен (Sarah Winchester), Сара Снук (Marion Marriott), Финн Скиклуна-О’Прей (Henry Marriott), Джейсон Кларк (Dr. Eric Price), Эмм Вайсман (Nancy), Алана Фэган (Partially Dressed Lady #1), Ребекка Макар (Partially Dressed Lady #2), Тайлер Коппин (Arthur Gates), Майкл Карман (Frank), Энгус Сэмпсон (John Hansen), Элис Чэстон (Clara), Имон Фэррен (Ben Block), Лаура Брент (Ruby Price), Адам Боус (Farmer Amputee), Брюс Спенс (Augustine)
Роли дублировали: Любовь Германова (Sarah Winchester), Наталья Грачёва (Marion Marriott), Александр Бердалим (Henry Marriott), Илья Исаев (Dr. Eric Price), Ирина Киреева (Nancy), Александр Хорлин (Arthur Gates), Александр Хотченков (Frank), Кирилл Радциг (John Hansen), Сергей Смирнов (Ben Block), Дарья Фролова (Ruby Price), Валерий Сторожик (Augustine)
Сборы в США: $25 091 816
Сборы в России: $943 464
Зрители: Россия 243.8 тыс.
Мировая премьера: 31 января 2018
Премьера (РФ): 5 апреля 2018, «Вольга»
MPAA: - Детям до 13 лет просмотр не желателен

Описание: Сара Винчестер, наследница знаменитой оружейной компании, живет в грандиозном здании, архитектура которого не поддается логике, а коридоры подобны лабиринтам. По распоряжению безутешной вдовы особняк постоянно перестраивается и бесконечно воздвигаются новые стены. Но строит она не для себя, не для своей племянницы или талантливого доктора Эрика Прайса, который приехал в особняк по ее приглашению. Сара строит ловушку для сотен мстительных призраков, и самые страшные из них хотят расправиться с кланом Винчестеров.


Качество: BDRip 1080p
Контейнер: MKV
Видео: AVC, 1920x804 (2.40:1), 5841 kbps, 23.976 fps, 0.158 bpp
Аудио: русский /; AC3 /; 5.1 /; 48 kHz /; 384 kbps /; 16 bit; ||
Субтитры: русские
Навигация по главам: есть

АНОНСЫ ПОПУЛЯРНЫХ РАЗДАЧ

  • Сюжет фильма основан на реальных событиях, произошедших в конце XIX века.

Код:

General
Unique ID                                : 175077049989357945790080459570106238148 (0x83B69D02355E2728B12AF9D4E72E84C4)
Complete name                            : G:\Винчестер.Дом,который построили призраки.2018.BDRip.1080p.MVO.mkv
Format                                   : Matroska
Format version                           : Version 4 / Version 2
File size                                : 4.33 GiB
Duration                                 : 1h 39mn
Overall bit rate                         : 6 225 Kbps
Movie name                               : Winchester.2018.REMUX.1080p.BluRay.AVC.DTS-HD.MA.5.1-iFT
Encoded date                             : UTC 2018-05-09 13:04:08
Writing application                      : mkvmerge v6.8.0 ('Theme for Great Cities') 32bit built on Mar  2 2014 21:27:07
Writing library                          : libebml v1.3.0 + libmatroska v1.4.1

Video
ID                                       : 1
Format                                   : AVC
Format/Info                              : Advanced Video Codec
Format profile                           : High@L4.1
Format settings, CABAC                   : Yes
Format settings, ReFrames                : 5 frames
Codec ID                                 : V_MPEG4/ISO/AVC
Duration                                 : 1h 39mn
Bit rate                                 : 5 841 Kbps
Width                                    : 1 920 pixels
Height                                   : 804 pixels
Display aspect ratio                     : 2.40:1
Frame rate mode                          : Constant
Frame rate                               : 23.976 fps
Color space                              : YUV
Chroma subsampling                       : 4:2:0
Bit depth                                : 8 bits
Scan type                                : Progressive
Bits/(Pixel*Frame)                       : 0.158
Stream size                              : 3.97 GiB (92%)
Writing library                          : x264 core 130 r2273 b3065e6
Encoding settings                        : cabac=1 / ref=5 / deblock=1:-3:-3 / analyse=0x3:0x113 / me=umh / subme=11 / psy=1 / psy_rd=1.00:0.15 / mixed_ref=1 / me_range=48 / chroma_me=1 / trellis=2 / 8x8dct=1 / cqm=0 / deadzone=21,11 / fast_pskip=0 / chroma_qp_offset=-4 / threads=6 / lookahead_threads=1 / sliced_threads=0 / nr=0 / decimate=0 / interlaced=0 / bluray_compat=0 / constrained_intra=0 / bframes=8 / b_pyramid=2 / b_adapt=2 / b_bias=0 / direct=2 / weightb=1 / open_gop=0 / weightp=2 / keyint=250 / keyint_min=23 / scenecut=40 / intra_refresh=0 / rc=2pass / mbtree=0 / bitrate=5841 / ratetol=1.0 / qcomp=0.60 / qpmin=0 / qpmax=69 / qpstep=4 / cplxblur=20.0 / qblur=0.5 / ip_ratio=1.40 / pb_ratio=1.30 / aq=2:1.00
Language                                 : English
Default                                  : Yes
Forced                                   : No
Color primaries                          : Generic film
Matrix coefficients                      : YCgCo

Audio
ID                                       : 2
Format                                   : AC-3
Format/Info                              : Audio Coding 3
Mode extension                           : CM (complete main)
Format settings, Endianness              : Big
Codec ID                                 : A_AC3
Duration                                 : 1h 39mn
Bit rate mode                            : Constant
Bit rate                                 : 384 Kbps
Channel(s)                               : 6 channels
Channel positions                        : Front: L C R, Side: L R, LFE
Sampling rate                            : 48.0 KHz
Bit depth                                : 16 bits
Compression mode                         : Lossy
Stream size                              : 273 MiB (6%)
Title                                    : DUB (iTunes)
Language                                 : Russian
Default                                  : Yes
Forced                                   : No

Text
ID                                       : 3
Format                                   : UTF-8
Codec ID                                 : S_TEXT/UTF8
Codec ID/Info                            : UTF-8 Plain Text
Title                                    : Rus
Language                                 : Russian
Default                                  : No
Forced                                   : No

Menu
00:00:00.000                             : en:Chapter 01
00:04:46.286                             : en:Chapter 02
00:10:01.601                             : en:Chapter 03
00:14:38.878                             : en:Chapter 04
00:21:21.280                             : en:Chapter 05
00:27:20.638                             : en:Chapter 06
00:35:53.151                             : en:Chapter 07
00:41:11.469                             : en:Chapter 08
00:50:03.000                             : en:Chapter 09
00:58:59.536                             : en:Chapter 10
01:06:16.973                             : en:Chapter 11
01:11:19.275                             : en:Chapter 12
01:16:00.556                             : en:Chapter 13
01:21:50.739                             : en:Chapter 14
01:27:04.219                             : en:Chapter 15
01:30:55.450                             : en:Chapter 16
01:39:30.255                             : en:Chapter 17






Скачать Винчестер.Дом.который.построили.призраки.Winchester.The.House.that.Ghosts.Built.(Майкл.Спириг.Питер.Спириг).[2018.ужасы.фэнтези.триллер.детектив.биография.BDRip].[1080p].[Dub].[Лицензия].[iTunes].[R.G.Goldenshara].torrent без регистрации
Золото ЗОЛОТАЯ РАЗДАЧА! СКАЧАННОЕ НЕ ЗАСЧИТЫВАЕТСЯ! Золото
Дата: Зарегистрирован   [ Тип: внутренний ] Как тут cкачать?
MAGNET ссылка
MAGNET ссылка


Скачать .torrent

11 KB

Статус: Τ временная раздача
Скачан: торрент - 86 раз, раздача полностью - 48 раз
Размер: 4,33 GB
Оценка:  5 (Голосов: 4)
Поблагодарили: 6
Поделиться ссылкой на эту раздачу с друзьями:
В контактеFacebookОдноклассникиTwitterLivejournalМой МирLiveinternet
 

 
Показать сообщения:    


Вы не можете начинать темы
Вы не можете отвечать на сообщения
Вы не можете редактировать свои сообщения
Вы не можете удалять свои сообщения
Вы не можете голосовать в опросах
Вы не можете прикреплять файлы к сообщениям
Вы можете скачивать файлы