Loading...
Error

Скачать Сладко/горько / Sweetbitter (Сезон 01, серии 01-04 из 06) (Адам Бернштейн, Шерин Дабис, Шира Пивен) [2018, Драма, WEBRip] [MVO] (Jaskier) + [Original] торрент без регистрации

Статистика раздачи
Размер:  1,41 GB   |    Скачан:  89 раз
Сидов:  1  [  0 KB/s  ]  
 
 
 
Автор Сообщение

leon030982

[] 

Сладко/горько / Sweetbitter


Год выпуска: 2018
Страна: США
Жанр: Драма
Продолжительность: ~ 00:30:00
Перевод: Профессиональный (многоголосый закадровый) (Jaskier)

Режиссер: Адам Бернштейн, Шерин Дабис, Шира Пивен

В ролях: Элла Пёрнелл, Эван Йоникит, Данияр, Иден Эпштейн, Кэйтлин Фицджералд, Джимми Саито, Пол Спаркс и др.

Описание: В центре истории оказывается молодая девушка Тесс, которая, по приезду в Нью-Йорк, получает работу в одном из самых престижных ресторанов. Секс, наркотики и алкоголь мгновенно затягивают девушку в безумный водоворот...



Качество: WEBRip
Контейнер: AVI
Видео: 720x400 (1.80:1), 23.976 fps, XviD build 50 ~1498 kbps avg, 0.22 bit/pixel
Аудио #1: 48 kHz, MPEG Layer 3, 2 ch, ~192.00 kbps avg (Rus)
Аудио #2: 48 kHz, MPEG Layer 3, 2 ch, ~192.00 kbps avg (Eng)
Субтитры: нет
Общее
Полное имя : D:\Видео\Релизы\Sweetbitter (S01)\Sweetbitter.S01E01.avi
Формат : AVI
Формат/Информация : Audio Video Interleave
Размер файла : 427 Мбайт
Продолжительность : 30 м. 30 с.
Общий поток : 1956 Кбит/сек
Программа кодирования : VirtualDubMod 1.5.10.2 (build 2540/release)
Библиотека кодирования : VirtualDubMod build 2540/release

Видео
Идентификатор : 0
Формат : MPEG-4 Visual
Профиль формата : Advanced Simple@L5
Настройки формата : BVOP1
Параметр BVOP формата : 1
Параметр QPel формата : Нет
Параметр GMC формата : Без точки перехода
Параметр матрицы формата : Default (H.263)
Идентификатор кодека : XVID
Идентификатор кодека/Подсказка : XviD
Продолжительность : 30 м. 30 с.
Битрейт : 1558 Кбит/сек
Ширина : 720 пикселей
Высота : 400 пикселей
Соотношение сторон : 16:9
Частота кадров : 23,976 (24000/1001) кадра/сек
Цветовое пространство : YUV
Субдискретизация насыщенности : 4:2:0
Битовая глубина : 8 бит
Тип развёртки : Прогрессивная
Метод сжатия : С потерями
Бит/(Пиксели*Кадры) : 0.226
Размер потока : 340 Мбайт (80%)
Библиотека кодирования : XviD 1.2.1 (UTC 2008-12-04)

Аудио #1
Идентификатор : 1
Формат : MPEG Audio
Версия формата : Version 1
Профиль формата : Layer 3
Настройки формата : Joint stereo / MS Stereo
Идентификатор кодека : 55
Идентификатор кодека/Подсказка : MP3
Продолжительность : 30 м. 30 с.
Вид битрейта : Постоянный
Битрейт : 192 Кбит/сек
Каналы : 2 канала
Частота : 48,0 КГц
Метод сжатия : С потерями
Размер потока : 41,9 Мбайт (10%)
Выравнивание : Соединение по промежуткам
Продолжительность промежутка : 42 мс. (1,00 видеокадр)
Время предзагрузки промежутка : 504 мс.

Аудио #2
Идентификатор : 2
Формат : MPEG Audio
Версия формата : Version 1
Профиль формата : Layer 3
Настройки формата : Joint stereo / MS Stereo
Идентификатор кодека : 55
Идентификатор кодека/Подсказка : MP3
Продолжительность : 30 м. 30 с.
Вид битрейта : Постоянный
Битрейт : 192 Кбит/сек
Каналы : 2 канала
Частота : 48,0 КГц
Частота кадров : 41,667 кадра/сек (1152 SPF)
Метод сжатия : С потерями
Размер потока : 41,9 Мбайт (10%)
Выравнивание : Соединение по промежуткам
Продолжительность промежутка : 42 мс. (1,00 видеокадр)
Время предзагрузки промежутка : 504 мс.
Библиотека кодирования : LAME3.99.5



Скачать Сладко.горько.Sweetbitter.(Сезон.01.серии.01-04.из.06).(Адам.Бернштейн.Шерин.Дабис.Шира.Пивен).[2018.Драма.WEBRip].[MVO].(Jaskier).+.[Original].torrent без регистрации
Золото ЗОЛОТАЯ РАЗДАЧА! СКАЧАННОЕ НЕ ЗАСЧИТЫВАЕТСЯ! Золото
Дата: Зарегистрирован   [ Тип: внутренний ] Как тут cкачать?
MAGNET ссылка
MAGNET ссылка


Скачать .torrent

15 KB

Статус: проверено DHT
Скачан: торрент - 89 раз, раздача полностью - 0 раз
Размер: 1,41 GB
Оценка:  - (Голосов: 0)
Поблагодарили: 0
Поделиться ссылкой на эту раздачу с друзьями:
В контактеFacebookОдноклассникиTwitterLivejournalМой МирLiveinternet
 

 
Показать сообщения:    


Вы не можете начинать темы
Вы не можете отвечать на сообщения
Вы не можете редактировать свои сообщения
Вы не можете удалять свои сообщения
Вы не можете голосовать в опросах
Вы не можете прикреплять файлы к сообщениям
Вы можете скачивать файлы