Loading...
Error

Скачать Открытая могила / Open Grave (Гонсало Лопес-Гальего) [2013, триллер, ужасы, BDRip] [1080p] [AVO (В.Белов)] [R.G. Goldenshara] торрент без регистрации

Статистика раздачи
Размер:  4,37 GB   |    Скачан:  62 раза
Сидов:  8  [  0 KB/s  ]  
 
 
 
Автор Сообщение

sobmaster

[] 



Открытая могила
Open Grave




Год выпуска: 2013
Страна: США , Венгрия
Выпущено: Atlas Independent, 852 Films, Speranza13 Media
Слоган: «The moment you wake up, the nightmare begins»
Жанр: триллер, ужасы

Продолжительность: 01:42:12
Перевод: Авторский (одноголосый, закадровый) (В.Белов)
Режиссер: Гонсало Лопес-Гальего
Сценарий: Эдди Бори, Крис Борей
Продюсер: Аарон Л. Гинсбург, Уильям Грин, Майкл Б. Вундермэн
Оператор: Хосе Давид Монтеро
Композитор: Хуан Навасо
Художник: Аттила Диги Кёвари, Бильяна Йованович, Андреа Флеш
Монтаж: Гонсало Лопес-Гальего
В ролях:


Шарлто Копли (John / Jonah), Томас Кречман (Lukas), Джозеф Морган (Nathan), Джози Хо (Brown Eyes), Эрин Ричардс (Sharon), Макс Роттсли (Michael), Марта Сабо (Crone), Балаж Ситаш (Sickly Man), Жужа Цабадош (Grandma), Тофи Сеффер (Boy), Кати Домби (Moaner Woman)
Зрители: Италия 61.8 тыс.
Мировая премьера: 14 августа 2013
MPAA: - Лицам до 17 лет обязательно присутствие взрослого

Описание: История человека, который однажды обнаруживает себя в яме в окружении трупов. При этом он ничего не помнит, не знает, кто он, откуда и как сюда попал. С помощью товарищей по несчастью, тоже потерявших память, он должен вычислить убийцу, который, по всей вероятности, находится среди них.


Качество: BDRip 1080p
Контейнер: MKV
Видео: AVC, 1920x792 (2.40:1), 5674 kbps, 24.000 fps, 0.155 bpp
Аудио: русский /; AC3 /; 5.1 /; 48 kHz /; 448 kbps /; 16 bit; ||
Субтитры #1: русские (Hunter)
Субтитры #2: английские
Навигация по главам: есть

АНОНСЫ ПОПУЛЯРНЫХ РАЗДАЧ

  • Герои в фильме передвигаются на российском автомобиле Lada Niva 4x4.

Код:

General
Unique ID                                : 170508501469315045915108351819150131675 (0x8046BE2D1246D6C9A3507D309AC201DB)
Complete name                            : E:\Мои рипы\Открытая могила.2013.BDRip.1080p.AVO.mkv
Format                                   : Matroska
Format version                           : Version 4 / Version 2
File size                                : 4.37 GiB
Duration                                 : 1h 42mn
Overall bit rate                         : 6 123 Kbps
Movie name                               : Release Group CINEMANIA
Encoded date                             : UTC 2018-04-24 03:32:24
Writing application                      : mkvmerge v6.8.0 ('Theme for Great Cities') 32bit built on Mar  2 2014 21:27:07
Writing library                          : libebml v1.3.0 + libmatroska v1.4.1

Video
ID                                       : 1
Format                                   : AVC
Format/Info                              : Advanced Video Codec
Format profile                           : High@L4.1
Format settings, CABAC                   : Yes
Format settings, ReFrames                : 5 frames
Codec ID                                 : V_MPEG4/ISO/AVC
Duration                                 : 1h 42mn
Bit rate                                 : 5 674 Kbps
Width                                    : 1 920 pixels
Height                                   : 792 pixels
Display aspect ratio                     : 2.40:1
Frame rate mode                          : Constant
Frame rate                               : 24.000 fps
Color space                              : YUV
Chroma subsampling                       : 4:2:0
Bit depth                                : 8 bits
Scan type                                : Progressive
Bits/(Pixel*Frame)                       : 0.155
Stream size                              : 3.96 GiB (91%)
Writing library                          : x264 core 130 r2273 b3065e6
Encoding settings                        : cabac=1 / ref=5 / deblock=1:-3:-3 / analyse=0x3:0x113 / me=umh / subme=11 / psy=1 / psy_rd=1.00:0.15 / mixed_ref=1 / me_range=48 / chroma_me=1 / trellis=2 / 8x8dct=1 / cqm=0 / deadzone=21,11 / fast_pskip=0 / chroma_qp_offset=-4 / threads=6 / lookahead_threads=1 / sliced_threads=0 / nr=0 / decimate=0 / interlaced=0 / bluray_compat=0 / constrained_intra=0 / bframes=8 / b_pyramid=2 / b_adapt=2 / b_bias=0 / direct=2 / weightb=1 / open_gop=0 / weightp=2 / keyint=250 / keyint_min=24 / scenecut=40 / intra_refresh=0 / rc=2pass / mbtree=0 / bitrate=5674 / ratetol=1.0 / qcomp=0.60 / qpmin=0 / qpmax=69 / qpstep=4 / cplxblur=20.0 / qblur=0.5 / ip_ratio=1.40 / pb_ratio=1.30 / aq=2:1.00
Language                                 : English
Default                                  : Yes
Forced                                   : No
Color primaries                          : Generic film
Matrix coefficients                      : YCgCo

Audio
ID                                       : 2
Format                                   : AC-3
Format/Info                              : Audio Coding 3
Mode extension                           : CM (complete main)
Format settings, Endianness              : Big
Codec ID                                 : A_AC3
Duration                                 : 1h 42mn
Bit rate mode                            : Constant
Bit rate                                 : 448 Kbps
Channel(s)                               : 6 channels
Channel positions                        : Front: L C R, Side: L R, LFE
Sampling rate                            : 48.0 KHz
Bit depth                                : 16 bits
Compression mode                         : Lossy
Stream size                              : 328 MiB (7%)
Title                                    : В.Белов
Language                                 : Russian
Default                                  : Yes
Forced                                   : No

Text #1
ID                                       : 3
Format                                   : UTF-8
Codec ID                                 : S_TEXT/UTF8
Codec ID/Info                            : UTF-8 Plain Text
Title                                    : Hunter
Language                                 : Russian
Default                                  : No
Forced                                   : No

Text #2
ID                                       : 4
Format                                   : UTF-8
Codec ID                                 : S_TEXT/UTF8
Codec ID/Info                            : UTF-8 Plain Text
Language                                 : English
Default                                  : No
Forced                                   : No

Menu
00:00:00.000                             : en:Chapter 1
00:12:34.375                             : en:Chapter 2
00:20:01.875                             : en:Chapter 3
00:26:48.665                             : en:Chapter 4
00:39:16.875                             : en:Chapter 5
00:46:26.625                             : en:Chapter 6
00:56:17.333                             : en:Chapter 7
01:03:25.208                             : en:Chapter 8
01:14:28.750                             : en:Chapter 9
01:24:17.707                             : en:Chapter 10






Скачать Открытая.могила.Open.Grave.(Гонсало.Лопес-Гальего).[2013.триллер.ужасы.BDRip].[1080p].[AVO.(В.Белов)].[R.G.Goldenshara].torrent без регистрации
Золото ЗОЛОТАЯ РАЗДАЧА! СКАЧАННОЕ НЕ ЗАСЧИТЫВАЕТСЯ! Золото
Дата: Зарегистрирован   [ Тип: внешний ] Как тут cкачать?
MAGNET ссылка
MAGNET ссылка


Скачать .torrent

12 KB

Статус: проверено DHT
Скачан: торрент - 62 раз, раздача полностью - 17 раз
Размер: 4,37 GB
Оценка:  5 (Голосов: 4)
Поблагодарили: 6
Поделиться ссылкой на эту раздачу с друзьями:
В контактеFacebookОдноклассникиTwitterLivejournalМой МирLiveinternet
 

 

Magnetto83

[] 

ab Ну что, снова в деле?! ay Еще раз спасибо за релиз, sobmaster! bs А релизов скопилось то....... Придется очень много нагонять!!!! ad
 

sobmaster

[] 

Ничего, разгребёмся потихоньку... Главное, чтобы всё нормально работало! ab
 
Показать сообщения:    


Вы не можете начинать темы
Вы не можете отвечать на сообщения
Вы не можете редактировать свои сообщения
Вы не можете удалять свои сообщения
Вы не можете голосовать в опросах
Вы не можете прикреплять файлы к сообщениям
Вы можете скачивать файлы