Loading...
Error

Скачать Воскрешение Каина / Raising Cain (Брайан Де Пальма) [1992, ужасы, триллер, драма, криминал, BDRip] [1080p] [DVO] + 2x[AVO (А. Михалёв, В. Дохалов)] [R.G. Goldenshara] торрент без регистрации

Статистика раздачи
Размер:  4,37 GB   |    Скачан:  71 раз
Сидов:  1  [  0 KB/s  ]  
 
 
 
Автор Сообщение

sobmaster

[] 



Воскрешение Каина
Raising Cain




Год выпуска: 1992
Страна: США
Выпущено: Pacific Western
Слоган: «De Mented, De Ranged, De Ceptive, De Palma»
Жанр: ужасы, триллер, драма, криминал

Продолжительность: 01:31:32
Перевод #1: Профессиональный (двухголосый, закадровый)
Перевод #2: Авторский (одноголосый, закадровый) (А. Михалёв)
Перевод #3: Авторский (одноголосый, закадровый) (В. Дохалов)
Режиссер: Брайан Де Пальма
Сценарий: Брайан Де Пальма
Продюсер: Гейл Энн Хёрд, Майкл Р. Джойс
Оператор: Стивен Х. Бёрум
Композитор: Пино Донаджо
Художник: Даг Крэйнер, Марк Биллерман, Бобби Рид
Монтаж: Роберт Далва, Пол Хирш, Бонни Колер
В ролях:


Джон Литгоу (Carter), Лолита Давидович (Jenny), Стивен Бауэр (Jack), Фрэнсис Стернхаген (Dr. Waldheim), Грегг Генри (Lt. Terri), Том Бауэр (Sgt. Cally), Мел Харрис (Sarah), Тери Остин (Karen), Гэбриэлль Картерис (Nan), Бартон Хейман (Mack), Аманда Помбо (Amy), Карен Кан (Saleslady)
Бюджет: $12 000 000
Сборы в США: $21 370 057
Сборы в мире: $37 170 057
Зрители: США 5.15 млн , Франция 202.9 тыс. , Испания 198.2 тыс.
Мировая премьера: 7 августа 1992
Релиз на DVD: 29 июля 2004, «Premier Digital»
MPAA: - Лицам до 17 лет обязательно присутствие взрослого

Описание: Маньяк-доктор, который когда-то поставил жуткий опыт над собственным сыном, превратив его в несчастное существо, лишенное своего «Я».
Дженни Никс, жена выдающегося детского психолога Картера Никса, становится все более обеспокоена навязчивой одержимостью мужа воспитанием их дочери. Ее любовный роман на стороне, заставляет ее пренебрегать собственными материнскими обязанностями, пока не начинается череда похищений детей в местном парке. Кошмарные сны и страшная реальность, мистика и дикие фантазии раздвоенного сознания сплетаются здесь в один запутанный клубок, распутать который зрителям не удастся до самого конца, где их ждет еще один милый сюрприз...


Качество: BDRip 1080p
Контейнер: MKV
Видео: AVC, 1920x1040 (1.85:1), 6261 kbps, 23.976 fps, 0.131 bpp
Аудио #1: русский /; AC3 /; 2.0 /; 48 kHz /; 192 kbps /; 16 bit; || DVO
Аудио #2: русский /; AC3 /; 2.0 /; 48 kHz /; 192 kbps /; 16 bit; || AVO (А. Михалёв)
Аудио #3: русский /; AC3 /; 2.0 /; 48 kHz /; 192 kbps /; 16 bit; || AVO (В. Дохалов)
Субтитры #1: русские
Субтитры #2: английские (BD)
Субтитры #3: английские (DVD)
Навигация по главам: есть

АНОНСЫ ПОПУЛЯРНЫХ РАЗДАЧ

  • Джон Литгоу уже работал с режиссером в картинах «Наваждение» (1976) и «Прокол» (1981).
  • В этом фильме Джон Литгоу играет сразу пять ролей.

Код:

General
Unique ID                                : 176260862321152251400799462781015193936 (0x849A9B767DBF983F84448242B4AE7950)
Complete name                            : G:\Воскрeшeние Каина.1992.BDRip.1080p.DVO+2xAVO.mkv
Format                                   : Matroska
Format version                           : Version 4 / Version 2
File size                                : 4.37 GiB
Duration                                 : 1h 31mn
Overall bit rate                         : 6 834 Kbps
Movie name                               : Raising.Cain.1992.BDRemux.1080p_by_vedigo
Encoded date                             : UTC 2018-04-18 04:09:03
Writing application                      : mkvmerge v6.8.0 ('Theme for Great Cities') 32bit built on Mar  2 2014 21:27:07
Writing library                          : libebml v1.3.0 + libmatroska v1.4.1

Video
ID                                       : 1
Format                                   : AVC
Format/Info                              : Advanced Video Codec
Format profile                           : High@L4.1
Format settings, CABAC                   : Yes
Format settings, ReFrames                : 4 frames
Codec ID                                 : V_MPEG4/ISO/AVC
Duration                                 : 1h 31mn
Bit rate                                 : 6 261 Kbps
Width                                    : 1 920 pixels
Height                                   : 1 040 pixels
Display aspect ratio                     : 1.85:1
Frame rate mode                          : Constant
Frame rate                               : 23.976 fps
Color space                              : YUV
Chroma subsampling                       : 4:2:0
Bit depth                                : 8 bits
Scan type                                : Progressive
Bits/(Pixel*Frame)                       : 0.131
Stream size                              : 3.91 GiB (90%)
Writing library                          : x264 core 130 r2273 b3065e6
Encoding settings                        : cabac=1 / ref=4 / deblock=1:-3:-3 / analyse=0x3:0x113 / me=umh / subme=11 / psy=1 / psy_rd=1.00:0.15 / mixed_ref=1 / me_range=48 / chroma_me=1 / trellis=2 / 8x8dct=1 / cqm=0 / deadzone=21,11 / fast_pskip=0 / chroma_qp_offset=-4 / threads=6 / lookahead_threads=1 / sliced_threads=0 / nr=0 / decimate=0 / interlaced=0 / bluray_compat=0 / constrained_intra=0 / bframes=8 / b_pyramid=2 / b_adapt=2 / b_bias=0 / direct=2 / weightb=1 / open_gop=0 / weightp=2 / keyint=250 / keyint_min=23 / scenecut=40 / intra_refresh=0 / rc=2pass / mbtree=0 / bitrate=6261 / ratetol=1.0 / qcomp=0.60 / qpmin=0 / qpmax=69 / qpstep=4 / cplxblur=20.0 / qblur=0.5 / ip_ratio=1.40 / pb_ratio=1.30 / aq=2:1.50
Language                                 : English
Default                                  : Yes
Forced                                   : No
Color primaries                          : Generic film
Matrix coefficients                      : YCgCo

Audio #1
ID                                       : 2
Format                                   : AC-3
Format/Info                              : Audio Coding 3
Mode extension                           : CM (complete main)
Format settings, Endianness              : Big
Codec ID                                 : A_AC3
Duration                                 : 1h 31mn
Bit rate mode                            : Constant
Bit rate                                 : 192 Kbps
Channel(s)                               : 2 channels
Channel positions                        : Front: L R
Sampling rate                            : 48.0 KHz
Bit depth                                : 16 bits
Compression mode                         : Lossy
Stream size                              : 126 MiB (3%)
Title                                    : DVO
Language                                 : Russian
Default                                  : Yes
Forced                                   : No

Audio #2
ID                                       : 3
Format                                   : AC-3
Format/Info                              : Audio Coding 3
Mode extension                           : CM (complete main)
Format settings, Endianness              : Big
Codec ID                                 : A_AC3
Duration                                 : 1h 31mn
Bit rate mode                            : Constant
Bit rate                                 : 192 Kbps
Channel(s)                               : 2 channels
Channel positions                        : Front: L R
Sampling rate                            : 48.0 KHz
Bit depth                                : 16 bits
Compression mode                         : Lossy
Stream size                              : 126 MiB (3%)
Title                                    : AVO @ А. Михалев
Language                                 : Russian
Default                                  : No
Forced                                   : No

Audio #3
ID                                       : 4
Format                                   : AC-3
Format/Info                              : Audio Coding 3
Mode extension                           : CM (complete main)
Format settings, Endianness              : Big
Codec ID                                 : A_AC3
Duration                                 : 1h 31mn
Bit rate mode                            : Constant
Bit rate                                 : 192 Kbps
Channel(s)                               : 2 channels
Channel positions                        : Front: L R
Sampling rate                            : 48.0 KHz
Bit depth                                : 16 bits
Compression mode                         : Lossy
Stream size                              : 126 MiB (3%)
Title                                    : AVO @ В. Дохалов
Language                                 : Russian
Default                                  : No
Forced                                   : No

Text #1
ID                                       : 5
Format                                   : UTF-8
Codec ID                                 : S_TEXT/UTF8
Codec ID/Info                            : UTF-8 Plain Text
Title                                    : Subtitle rus
Language                                 : Russian
Default                                  : No
Forced                                   : No

Text #2
ID                                       : 6
Format                                   : UTF-8
Codec ID                                 : S_TEXT/UTF8
Codec ID/Info                            : UTF-8 Plain Text
Title                                    : Subtitle eng [BD ] Full
Language                                 : English
Default                                  : No
Forced                                   : No

Text #3
ID                                       : 7
Format                                   : UTF-8
Codec ID                                 : S_TEXT/UTF8
Codec ID/Info                            : UTF-8 Plain Text
Title                                    : Subtitle eng [DVD]
Language                                 : English
Default                                  : No
Forced                                   : No

Menu
00:00:00.000                             : en:00:00:00.000
00:09:57.138                             : en:00:09:57.138
00:17:44.563                             : en:00:17:44.563
00:24:10.866                             : en:00:24:10.866
00:32:55.307                             : en:00:32:55.307
00:38:57.460                             : en:00:38:57.460
00:46:17.274                             : en:00:46:17.274
00:54:17.671                             : en:00:54:17.671
01:03:34.978                             : en:01:03:34.978
01:08:34.986                             : en:01:08:34.986
01:15:45.583                             : en:01:15:45.583
01:25:52.606                             : en:01:25:52.606






Скачать Воскрешение.Каина.Raising.Cain.(Брайан.Де.Пальма).[1992.ужасы.триллер.драма.криминал.BDRip].[1080p].[DVO].+.2x[AVO.(А.Михалёв.В.Дохалов)].[R.G.Goldenshara].torrent без регистрации
Золото ЗОЛОТАЯ РАЗДАЧА! СКАЧАННОЕ НЕ ЗАСЧИТЫВАЕТСЯ! Золото
Дата: Зарегистрирован   [ Тип: внутренний ] Как тут cкачать?
MAGNET ссылка
MAGNET ссылка


Скачать .torrent

11 KB

Статус: проверено DHT
Скачан: торрент - 71 раз, раздача полностью - 23 раз
Размер: 4,37 GB
Оценка:  5 (Голосов: 2)
Поблагодарили: 5
Поделиться ссылкой на эту раздачу с друзьями:
В контактеFacebookОдноклассникиTwitterLivejournalМой МирLiveinternet
 

 
Показать сообщения:    


Вы не можете начинать темы
Вы не можете отвечать на сообщения
Вы не можете редактировать свои сообщения
Вы не можете удалять свои сообщения
Вы не можете голосовать в опросах
Вы не можете прикреплять файлы к сообщениям
Вы можете скачивать файлы