Loading...
Error

Скачать Мир Дикого запада / Westworld [2016-2018](Сезон 1-2, Серия 1-20 из 20 ) (Джонатан Нолан, Ричард Дж. Льюис) [Фантастика, триллер, вестерн , WEB-DLRip][1080p][Кравец+NewStudiо+Jaskier+ AlexFilm+BaibaKО+Eng]+[Subs ENG+Rus] торрент без регистрации

Статистика раздачи
Размер:  114,26 GB   |    Скачан:  346 раз
Сидов:  1  [  0 KB/s  ]  
 
 
 
Автор Сообщение

Nikolai.Baranov

[] 



Мир Дикого запада / Westworld Сезон 1-2, Серия 1--20 из 20




Год выпуска: 2016-2018
Выпущено: США , , Bad Robot, Jerry Weintraub Productions, Kilter Films, Warner Bros. Television
Жанр: Фантастика, триллер, вестерн
Продолжительность: 01:00:00
Сезон:1-2
Серия: 1--20
Количество серий в сезоне: 20

Сезон 1
Озвучка 1: - Дублированный -Кравец- по заказу Amedia]-Русский

Озвучка2: Профессиональный многоголосый - AlexFilm -Русский

Озвучка 3:Профессиональный двухголосый -Кубик в Кубе-Русский

Озвучка 4: Профессиональный многоголосый - Английский - Оригинал

Субтитры: : Russian, English

Сезон 2
Озвучка 1: - Дублированный -Кравец- по заказу Amedia]-Русский

Озвучка2: Профессиональный многоголосый - AlexFilm -Русский

Озвучка3: Профессиональный многоголосый - BaibaKО -Русский

Озвучка 4: Профессиональный многоголосый - NewStudiо -Русский

Озвучка 5: Профессиональный многоголосый - Jaskier -Русский

Озвучка 6: Профессиональный многоголосый - Английский - Оригинал

Субтитры: : Russian, English, English SDH

MDB

Режиссер: Джонатан Нолан, Ричард Дж. Льюис, Нил Маршалл

В ролях: Ивэн Рэйчел Вуд, Тэнди Ньютон, Джеффри Райт, Джеймс Марсден, Бен Барнс, Ингрид Бульсё Бердал, Клифтон Коллинз-мл., Люк Хемсворт, Сидсе Бабетт Кнудсен, Саймон Куортерман, Родриго Санторо, Анджела Сарафян, Джимми Симпсон, Тесса Томпсон, Шеннон Вудворд, Эд Харрис, Энтони Хопкинс


Фантастический сериал, снятый при участии Джонатана Нолана («Интерстеллар», «Престиж») и Джей Джей Абрамса («Остаться в живых», «Звездные войны: Пробуждение силы»). Недалекое будущее. Гениальный конструктор и изобретатель Роберт Форд (Энтони Хопкинс) создает необычный парк развлечений, стилизованный под эпоху Дикого Запада. Однако люди едут сюда не столько за тем, чтобы на некоторое время перенестись в прошлое, сколько за новыми ощущениями: свой парк доктор Форд заселил человекоподобными роботами, с которыми посетители могут делать, все что захотят. Бояться им нечего: несмотря на то, что у некоторых андроидов есть оружие, они никогда не применят его против человека, поскольку запрограммированы угождать гостям парка. Но все меняется после поломки системы: один за другим роботы начинают нарушать заданный сценарий. Основную идею создатели сериала заимствовали из одноименного научно-фантастического фильма 1973 года писателя и режиссера Майкла Крайтона. Произведения Крайтона неоднократно привлекали внимание кинематографистов еще до публикации: за право экранизировать его роман «Парк Юрского периода» боролись сразу несколько студий, в итоге права приобрел Стивен Спилберг.




Сезон 1
Качество :BDRip 1080p
Формат: MKV
Видео кодек: H264
Видео: 9977Kбит/сек,1920х1080(16.9),в 23.976кадр/сек,AVC (High@L4.1)(CABAC/4 Ref Frames)

Аудио Кодек:AC3

Аудио #1:AC3 384 Kbps, 48.0 KHz, 6 ch- Кравец -Русский

Аудио #2:AC3 , 384 Kbps, 48.0 KHz, 6 ch- AlexFilm -Русский

Аудио #3:AC3 , 384 Kbps, 48.0 KHz, 6 ch- Кубик в Кубе -Русский

Аудио #4: AC3, 640 Kbps, 48.0 KHz,6 ch - - English - Оригинал

Сезон 2
Качество :WEB-DLRip 1080p
Формат: MKV
Видео кодек: H264
Видео: 10,3Мбит/сек,1920х1080(16.9),в 23.976кадр/сек,AVC (High@L4)(CABAC/4 Ref Frames)

Аудио Кодек:AC3

Аудио #1:AC3 384 Kbps, 48.0 KHz, 6 ch- Кравец -Русский

Аудио #2:AC3 , 384 Kbps, 48.0 KHz, 6 ch- AlexFilm -Русский

Аудио #3:AC3 , 384 Kbps, 48.0 KHz, 6 ch- BaibaKО -Русский

Аудио #4:AC3 , 384 Kbps, 48.0 KHz, 6 ch-NewStudiо -Русский

Аудио #5:AC3 , 384 Kbps, 48.0 KHz, 6 ch-Jaskier -Русский

Аудио #6: AC3, 640 Kbps, 48.0 KHz,6 ch - - English - Оригинал


Звуковая дорожка сделана путем наложения чистого голоса озвучивателей на центральный канал оригинальной дорожки. Качество идентично звуковой дорожке.



Мир Дикого запада / Westworld [2016-2018](Сезон 1-2, Серия 1-20 из 20 )(Джонатан Нолан, Ричард Дж. Льюис) [Фантастика, триллер, вестерн , WEB-DLRip][400p][Кравец+NewStudiо+Jaskier+ AlexFilm+BaibaKО+Eng]+[Subs ENG+Rus]



Мир Дикого запада / Westworld [2016-2018](Сезон 1-2, Серия 1-20 из 20 ) (Джонатан Нолан, Ричард Дж. Льюис) [Фантастика, триллер, вестерн , WEB-DLRip][720p][Кравец+NewStudiо+Jaskier+ AlexFilm+BaibaKО+Eng]+[Subs ENG+Rus]



Сезон 1

1-01. Обновление / The Original (02.10.2016)
1-02. Избитый сюжет / Chestnut (07.10.2016)
1-03. Бродяга / The Stray (16.10.2016)
1-04. Теория Диссонанса / Dissonance Theory (23.10.2016)
1-05. Контрапассо / Contrapasso (30.10.2016)
1-06. Противник / The Adversary (06.11.2016)
1-07. Обман зрения / Trompe L'Oeil (13.11.2016)
1-08. Угасание следа / Trace Decay (20.11.2016)
1-09. Хорошо темперированный клавир / The Well-Tempered Clavier (27.11.2016)
1-10. Бикамеральный разум / The Bicameral Mind (04.12.2016)

Сезон 2

1. Путешествие в ночь / Journey Into Night
2. Воссоединение / Reunion
3. Добродетель и удача / Virtù e Fortuna
4. Загадка Сфинкса / Riddle of the Sphinx
5. Гребля Аканэ / Akane No Mai
6. Космическая фаза / Phase Space
07. Свежеватели / Les Écorchés
08. Киксуйа / Kiksuya
09. Исчезающая точка / Vanishing Point
10. Пассажир / The Passenger



Общее
Уникальный идентификатор : 304892783030720344346906787955689824459 (0xE56036CD124C9DBA30872C5485A6A0CB)
Полное имя : E:\МИР ДИКОГО ЗАПАДА ( Westworld )\WESTWORLD_S01-S02_Н264_DD5.1_N.B_HD_1080_4xRus_Eng\Westworld_S01E01_Н264_DD5.1_N.B_HD_1080_3xRus_Eng.mkv
Формат : Matroska
Версия формата : Version 4 / Version 2
Размер файла : 5,60 Гбайт
Продолжительность : 1 ч. 8 м.
Общий поток : 11,8 Мбит/сек
Название фильма : Westworld S01E01 @ Nikolai.Baranov & PIRATIYA
Дата кодирования : UTC 2018-05-23 05:27:36
Программа кодирования : mkvmerge v23.0.0 ('The Bride Said No') 64-bit
Библиотека кодирования : libebml v1.3.6 + libmatroska v1.4.9

Видео
Идентификатор : 1
Формат : AVC
Формат/Информация : Advanced Video Codec
Профиль формата : High@L4.1
Настройки формата : CABAC / 4 Ref Frames
Параметр CABAC формата : Да
Параметр RefFrames формата : 4 кадра
Идентификатор кодека : V_MPEG4/ISO/AVC
Продолжительность : 1 ч. 8 м.
Битрейт : 9977 Кбит/сек
Ширина : 1920 пикселей
Высота : 1080 пикселей
Соотношение сторон : 16:9
Режим частоты кадров : Постоянный
Частота кадров : 23,976 (24000/1001) кадра/сек
Цветовое пространство : YUV
Субдискретизация насыщенности : 4:2:0
Битовая глубина : 8 бит
Тип развёртки : Прогрессивная
Бит/(Пиксели*Кадры) : 0.201
Размер потока : 4,74 Гбайт (85%)
Заголовок : Westworld_S01E01_Н264_DD5.1_N.B_HD_1080_3xRus_Eng
Библиотека кодирования : x264 core 152 r2851 ba24899
Настройки программы : cabac=1 / ref=4 / deblock=1:-3:-3 / analyse=0x3:0x113 / me=umh / subme=8 / psy=1 / psy_rd=1.00:0.00 / mixed_ref=1 / me_range=32 / chroma_me=1 / trellis=2 / 8x8dct=1 / cqm=0 / deadzone=21,11 / fast_pskip=1 / chroma_qp_offset=-2 / threads=24 / lookahead_threads=4 / sliced_threads=0 / nr=0 / decimate=1 / interlaced=0 / bluray_compat=0 / constrained_intra=0 / bframes=3 / b_pyramid=2 / b_adapt=2 / b_bias=0 / direct=3 / weightb=1 / open_gop=0 / weightp=2 / keyint=240 / keyint_min=24 / scenecut=40 / intra_refresh=0 / rc_lookahead=50 / rc=2pass / mbtree=1 / bitrate=9977 / ratetol=1.0 / qcomp=0.60 / qpmin=0 / qpmax=69 / qpstep=4 / cplxblur=20.0 / qblur=0.5 / ip_ratio=1.40 / aq=3:0.80
Язык : Russian
Default : Да
Forced : Нет

Аудио #1
Идентификатор : 4
Формат : AC-3
Формат/Информация : Audio Coding 3
Идентификатор кодека : A_AC3
Продолжительность : 1 ч. 8 м.
Вид битрейта : Постоянный
Битрейт : 384 Кбит/сек
Каналы : 6 каналов
Расположение каналов : Front: L C R, Side: L R, LFE
Частота : 48,0 КГц
Частота кадров : 31,250 кадров/сек (1536 SPF)
Битовая глубина : 16 бит
Метод сжатия : С потерями
Размер потока : 187 Мбайт (3%)
Заголовок : Amedia (Кравец) @DD5.1 AC3, 384 Kbps, 48.0 KHz, 6 ch
Язык : Russian
ServiceKind/String : Complete Main
Default : Да
Forced : Нет

Аудио #2
Идентификатор : 5
Формат : AC-3
Формат/Информация : Audio Coding 3
Идентификатор кодека : A_AC3
Продолжительность : 1 ч. 8 м.
Вид битрейта : Постоянный
Битрейт : 384 Кбит/сек
Каналы : 6 каналов
Расположение каналов : Front: L C R, Side: L R, LFE
Частота : 48,0 КГц
Частота кадров : 31,250 кадров/сек (1536 SPF)
Битовая глубина : 16 бит
Метод сжатия : С потерями
Размер потока : 187 Мбайт (3%)
Заголовок : MVO AlexFilm @DD5.1 AC3, 384 Kbps, 48.0 KHz, 6 ch
Язык : Russian
ServiceKind/String : Complete Main
Default : Нет
Forced : Нет

Аудио #3
Идентификатор : 6
Формат : AC-3
Формат/Информация : Audio Coding 3
Идентификатор кодека : A_AC3
Продолжительность : 1 ч. 8 м.
Вид битрейта : Постоянный
Битрейт : 640 Кбит/сек
Каналы : 6 каналов
Расположение каналов : Front: L C R, Side: L R, LFE
Частота : 48,0 КГц
Частота кадров : 31,250 кадров/сек (1536 SPF)
Битовая глубина : 16 бит
Метод сжатия : С потерями
Размер потока : 312 Мбайт (5%)
Заголовок : Original@DD5.1 AC3 ,640 Kbps, 48.0 KHz, 6 ch
Язык : English
ServiceKind/String : Complete Main
Default : Нет
Forced : Нет

Аудио #4
Идентификатор : 7
Формат : AC-3
Формат/Информация : Audio Coding 3
Идентификатор кодека : A_AC3
Продолжительность : 1 ч. 8 м.
Вид битрейта : Постоянный
Битрейт : 384 Кбит/сек
Каналы : 6 каналов
Расположение каналов : Front: L C R, Side: L R, LFE
Частота : 48,0 КГц
Частота кадров : 31,250 кадров/сек (1536 SPF)
Битовая глубина : 16 бит
Метод сжатия : С потерями
Размер потока : 187 Мбайт (3%)
Заголовок : MVO Kubik V Kube @DD5.1 AC3, 384 Kbps, 48.0 KHz, 6 ch
Язык : Russian
ServiceKind/String : Complete Main
Default : Нет
Forced : Нет

Текст #1
Идентификатор : 2
Формат : UTF-8
Идентификатор кодека : S_TEXT/UTF8
Идентификатор кодека/Информация : UTF-8 Plain Text
Продолжительность : 1 ч. 4 м.
Битрейт : 72 бит/сек
ElementCount : 698
Размер потока : 34,6 Кбайт (0%)
Заголовок : Amedia
Язык : Russian
Default : Да
Forced : Нет

Текст #2
Идентификатор : 3
Формат : UTF-8
Идентификатор кодека : S_TEXT/UTF8
Идентификатор кодека/Информация : UTF-8 Plain Text
Продолжительность : 1 ч. 4 м.
Битрейт : 51 бит/сек
ElementCount : 746
Размер потока : 24,3 Кбайт (0%)
Заголовок : Original
Язык : English
Default : Нет
Forced : Нет

Меню
00:00:00.000 : en:Глава 01 / en:Глава 01 / en:Глава 01 / en:Глава 01 / en:Глава 01 / en:Глава 01 / en:Глава 01



Общее
Уникальный идентификатор : 61145885837596209499962045250846103199 (0x2E0044EDA360550EB6F1306F9F14969F)
Полное имя : E:\МИР ДИКОГО ЗАПАДА ( Westworld )\WESTWORLD_S01-S02_Н264_DD5.1_N.B_HD_1080_4xRus_Eng\Westworld_S02E01_Н264_DD5.1_N.B_HD_1080_4xRus_Eng.mkv
Формат : Matroska
Версия формата : Version 4 / Version 2
Размер файла : 6,69 Гбайт
Продолжительность : 1 ч. 14 м.
Режим общего битрейта : Переменный
Общий поток : 12,8 Мбит/сек
Название фильма : Westworld S02E01 @ Nikolai.Baranov & PIRATIYA
Дата кодирования : UTC 2018-05-20 06:56:17
Программа кодирования : mkvmerge v23.0.0 ('The Bride Said No') 64-bit
Библиотека кодирования : libebml v1.3.6 + libmatroska v1.4.9

Видео
Идентификатор : 1
Формат : AVC
Формат/Информация : Advanced Video Codec
Профиль формата : High@L4
Настройки формата : CABAC / 4 Ref Frames
Параметр CABAC формата : Да
Параметр RefFrames формата : 4 кадра
Идентификатор кодека : V_MPEG4/ISO/AVC
Продолжительность : 1 ч. 14 м.
Вид битрейта : Переменный
Битрейт : 10,3 Мбит/сек
Максимальный битрейт : 15,0 Мбит/сек
Ширина : 1920 пикселей
Высота : 1080 пикселей
Соотношение сторон : 16:9
Режим частоты кадров : Постоянный
Частота кадров : 23,976 (24000/1001) кадра/сек
Цветовое пространство : YUV
Субдискретизация насыщенности : 4:2:0
Битовая глубина : 8 бит
Тип развёртки : Прогрессивная
Бит/(Пиксели*Кадры) : 0.207
Размер потока : 5,36 Гбайт (80%)
Заголовок : Westworld_S02E01_Н264_DD5.1_N.B_HD_1080_4xRus_Eng
Язык : Russian
Default : Да
Forced : Нет
Цветовой диапазон : Limited
Основные цвета : BT.709
Характеристики трансфера : BT.709
Коэффициенты матрицы : BT.709

Аудио #1
Идентификатор : 6
Формат : AC-3
Формат/Информация : Audio Coding 3
Идентификатор кодека : A_AC3
Продолжительность : 1 ч. 14 м.
Вид битрейта : Постоянный
Битрейт : 384 Кбит/сек
Каналы : 6 каналов
Расположение каналов : Front: L C R, Side: L R, LFE
Частота : 48,0 КГц
Частота кадров : 31,250 кадров/сек (1536 SPF)
Битовая глубина : 16 бит
Метод сжатия : С потерями
Размер потока : 205 Мбайт (3%)
Заголовок : Amedia (Кравец) @DD5.1 AC3, 384 Kbps, 48.0 KHz, 6 ch
Язык : Russian
ServiceKind/String : Complete Main
Default : Да
Forced : Нет

Аудио #2
Идентификатор : 7
Формат : AC-3
Формат/Информация : Audio Coding 3
Идентификатор кодека : A_AC3
Продолжительность : 1 ч. 13 м.
Вид битрейта : Постоянный
Битрейт : 384 Кбит/сек
Каналы : 6 каналов
Расположение каналов : Front: L C R, Side: L R, LFE
Частота : 48,0 КГц
Частота кадров : 31,250 кадров/сек (1536 SPF)
Битовая глубина : 16 бит
Метод сжатия : С потерями
Размер потока : 202 Мбайт (3%)
Заголовок : MVO AlexFilm @DD5.1 AC3, 384 Kbps, 48.0 KHz, 6 ch
Язык : Russian
ServiceKind/String : Complete Main
Default : Нет
Forced : Нет

Аудио #3
Идентификатор : 8
Формат : AC-3
Формат/Информация : Audio Coding 3
Идентификатор кодека : A_AC3
Продолжительность : 1 ч. 13 м.
Вид битрейта : Постоянный
Битрейт : 384 Кбит/сек
Каналы : 6 каналов
Расположение каналов : Front: L C R, Side: L R, LFE
Частота : 48,0 КГц
Частота кадров : 31,250 кадров/сек (1536 SPF)
Битовая глубина : 16 бит
Метод сжатия : С потерями
Размер потока : 202 Мбайт (3%)
Заголовок : MVO NewStudio @DD5.1 AC3, 384 Kbps, 48.0 KHz, 6 ch
Язык : Russian
ServiceKind/String : Complete Main
Default : Нет
Forced : Нет

Аудио #4
Идентификатор : 9
Формат : AC-3
Формат/Информация : Audio Coding 3
Идентификатор кодека : A_AC3
Продолжительность : 1 ч. 14 м.
Вид битрейта : Постоянный
Битрейт : 384 Кбит/сек
Каналы : 6 каналов
Расположение каналов : Front: L C R, Side: L R, LFE
Частота : 48,0 КГц
Частота кадров : 31,250 кадров/сек (1536 SPF)
Битовая глубина : 16 бит
Метод сжатия : С потерями
Размер потока : 205 Мбайт (3%)
Заголовок : MVO BaibaKo @DD5.1 AC3, 384 Kbps, 48.0 KHz, 6 ch
Язык : Russian
ServiceKind/String : Complete Main
Default : Нет
Forced : Нет

Аудио #5
Идентификатор : 10
Формат : AC-3
Формат/Информация : Audio Coding 3
Идентификатор кодека : A_AC3
Продолжительность : 1 ч. 14 м.
Вид битрейта : Постоянный
Битрейт : 640 Кбит/сек
Каналы : 6 каналов
Расположение каналов : Front: L C R, Side: L R, LFE
Частота : 48,0 КГц
Частота кадров : 31,250 кадров/сек (1536 SPF)
Битовая глубина : 16 бит
Метод сжатия : С потерями
Размер потока : 342 Мбайт (5%)
Заголовок : Original@DD5.1 AC3 ,640 Kbps, 48.0 KHz, 6 ch
Язык : English
ServiceKind/String : Complete Main
Default : Нет
Forced : Нет

Аудио #6
Идентификатор : 11
Формат : AC-3
Формат/Информация : Audio Coding 3
Идентификатор кодека : A_AC3
Продолжительность : 1 ч. 14 м.
Вид битрейта : Постоянный
Битрейт : 384 Кбит/сек
Каналы : 6 каналов
Расположение каналов : Front: L C R, Side: L R, LFE
Частота : 48,0 КГц
Частота кадров : 31,250 кадров/сек (1536 SPF)
Битовая глубина : 16 бит
Метод сжатия : С потерями
Размер потока : 205 Мбайт (3%)
Заголовок : MVO Jaskier @DD5.1 AC3, 384 Kbps, 48.0 KHz, 6 ch
Язык : Russian
ServiceKind/String : Complete Main
Default : Нет
Forced : Нет

Текст #1
Идентификатор : 2
Формат : UTF-8
Идентификатор кодека : S_TEXT/UTF8
Идентификатор кодека/Информация : UTF-8 Plain Text
Продолжительность : 3 м. 51 с.
Битрейт : 173 бит/сек
ElementCount : 91
Размер потока : 4,92 Кбайт (0%)
Заголовок : Forced
Язык : Russian
Default : Да
Forced : Нет

Текст #2
Идентификатор : 3
Формат : UTF-8
Идентификатор кодека : S_TEXT/UTF8
Идентификатор кодека/Информация : UTF-8 Plain Text
Продолжительность : 1 ч. 6 м.
Битрейт : 50 бит/сек
ElementCount : 605
Размер потока : 24,4 Кбайт (0%)
Заголовок : Amedia
Язык : Russian
Default : Нет
Forced : Нет

Текст #3
Идентификатор : 4
Формат : UTF-8
Идентификатор кодека : S_TEXT/UTF8
Идентификатор кодека/Информация : UTF-8 Plain Text
Продолжительность : 1 ч. 14 м.
Битрейт : 38 бит/сек
ElementCount : 714
Размер потока : 21,1 Кбайт (0%)
Заголовок : Original
Язык : English
Default : Нет
Forced : Нет

Текст #4
Идентификатор : 5
Формат : UTF-8
Идентификатор кодека : S_TEXT/UTF8
Идентификатор кодека/Информация : UTF-8 Plain Text
Продолжительность : 1 ч. 14 м.
Битрейт : 42 бит/сек
ElementCount : 802
Размер потока : 23,2 Кбайт (0%)
Заголовок : Original - SDH
Язык : English
Default : Нет
Forced : Нет

Меню
00:00:00.000 : en:Глава 01 / en:Глава 01 / en:Глава 01 / en:Глава 01 / en:Глава 01 / en:Глава 01 / en:Глава 01 / en:Глава 01 / en:Глава 01 / en:Глава 01 / en:Глава 01




Сезон 1

Сезон 2



Сезон 1

Сезон 2


1. Открыть торрент
2. Снять галки с тех файлов торрента, которые мы не хотим закачивать. Оставляем только на нужных нам файлах (файле).
3. Нажать О.К.

В клиенте utorrent

Инструкция

1) Открыть торрент


2) Снять галки с тех файлов торрента, которые мы не хотим закачивать:

* либо вручную, снимая с каждого файла галку( скрин №1)
* либо, нажав кнопку "Снять метки (Select None)", сняв сразу со всех файлов(скрин №2)
№1

№2

Оставляем только на нужных нам файлах (файле).

3)Нажать О.К






ПОЛНЫЙ КОМПЛЕКТ


Внимание!!! 02.07. 2018. РАЗДАЧА ОБНОВЛЕНА. ДОБАВЛЕНЫ СЕЗОН 1 - 10СЕРИЯ , СЕЗОН 2 - 10СЕРИЯ. ФИНАЛ 2 СЕЗОНА .ОБНОВИТЕ ТОРЕНТ ФАЙЛ. ПРИЯТНОГО ПРОСМОТРА . ПРИНОШУ СВОИ ИЗВИНЕНИЯ ЗА ЗАДЕРЖКУ РАЗДАЧИ , ЖЕЛЕЗО ПОЛЕТЕЛО .Nikolai.Baranov

Релиз от: Nikolai.Baranov & PIRATIYA










Скачать Мир.Дикого.запада.Westworld.[2016-2018](Сезон.1-2.Серия.1-20.из.20.).(Джонатан.Нолан.Ричард.Дж.Льюис).[Фантастика.триллер.вестерн.WEB-DLRip][1080p][Кравец+NewStudiо+Jaskier+.AlexFilm+BaibaKО+Eng]+[Subs.ENG+Rus].torrent без регистрации
Золото ЗОЛОТАЯ РАЗДАЧА! СКАЧАННОЕ НЕ ЗАСЧИТЫВАЕТСЯ! Золото
Дата: Зарегистрирован   [ Тип: внутренний ] Как тут cкачать?
MAGNET ссылка
MAGNET ссылка


Скачать .torrent

290 KB

Статус: проверено DHT
Скачан: торрент - 346 раз, раздача полностью - 0 раз
Размер: 114,26 GB
Оценка:  - (Голосов: 0)
Поблагодарили: 1
Поделиться ссылкой на эту раздачу с друзьями:
В контактеFacebookОдноклассникиTwitterLivejournalМой МирLiveinternet
 

 
Показать сообщения:    


Вы не можете начинать темы
Вы не можете отвечать на сообщения
Вы не можете редактировать свои сообщения
Вы не можете удалять свои сообщения
Вы не можете голосовать в опросах
Вы не можете прикреплять файлы к сообщениям
Вы можете скачивать файлы