Loading...
Error

Скачать Враг у ворот / Enemy at the Gates (Жан-Жак Анно) [2001, драма, военный, история, HDDVDRip] [1080p] [Dub (Пифагор)] [R.G. Goldenshara] торрент без регистрации

Статистика раздачи
Размер:  4,37 GB   |    Скачан:  70 раз
Сидов:  6  [  0 KB/s  ]  
 
 
 
Автор Сообщение

sobmaster

[] 



Враг у ворот
Enemy at the Gates




Год выпуска: 2001
Страна: Великобритания , Франция , Германия , Ирландия , США
Выпущено: Swanford Films, MP Film Management, Little Bird
Слоган: «Битва между двумя странами стала конфликтом между двумя мужчинами»
Жанр: драма, военный, история

Продолжительность: 02:10:54
Перевод: Профессиональный (полное дублирование) (Пифагор)
Режиссер: Жан-Жак Анно
Сценарий: Жан-Жак Анно, Ален Годар
Продюсер: Жан-Жак Анно, Джон Д. Шофилд, Ален Годар
Оператор: Робер Фресс
Композитор: Джеймс Хорнер
Художник: Вульф Крёгер, Питер Френсис, Нил Ламонт
Монтаж: Ноэль Буассон, Хамфри Диксон
В ролях:


Джуд Лоу (Vassili), Рэйчел Вайс (Tania Chernova), Джозеф Файнс (Commisar Danilov), Эд Харрис (Major König), Боб Хоскинс (Nikita Khrushchev), Рон Перлман (Koulikov), Ева Маттес (Mother Filipov), Гэбриел Томсон (Sacha Filipov), Маттиас Хабих (General Paulus), София Ройз (Ludmilla), Иван Шведов (Volodya), Ганс Мартин Штир (Red Army General), Клеменс Шик (German NCO), Михаил Матвеев (Grandfather)
Роли дублировали: Юрий Брежнев (Vassili), Марианна Шульц (Tania Chernova), Андрей Градов (Commisar Danilov), Никита Прозоровский (Major König), Виктор Петров (Nikita Khrushchev), Рудольф Панков (Koulikov), Николай Быстров (Sacha Filipov), Дальвин Щербаков (General Paulus), Олег Вирозуб (Volodya), Александр Хотченков (Red Army General), Виктор Бохон (German NCO), Олег Куценко, Юрий Меншагин, Юрий Саранцев (Russian NCO), Игорь Копченко (рассказчик)
Бюджет: $68 000 000
Маркетинг: $12 000 000
Сборы в США: $51 401 758
Сборы в мире: $96 976 270
Зрители: США 9.54 млн , Франция 1.05 млн , Великобритания 910.3 тыс.
Мировая премьера: 7 февраля 2001
Премьера (РФ): 6 апреля 2001, «Ист-Вест»
Релиз на DVD: 19 октября 2010, «Юниверсал Пикчерс Рус»
MPAA: - Лицам до 17 лет обязательно присутствие взрослого

Описание: 1942 год, разгар Сталинградской битвы. Немецкое командование направляет на передовую своего лучшего стрелка, майора Кенига, с особым заданием. Этот опытный и терпеливый профессионал — единственный, кто может попытаться справиться с русским «ангелом смерти» — неуловимым снайпером Василием Зайцевым.
Зайцев — легенда и икона для защитников Сталинграда. Каждый день он выносит смертный приговор десяткам захватчиков, попавших в перекрестье его прицела. Между двумя уникальными снайперами начинается смертельная схватка, победителем из которой будет суждено выйти лишь одному…


Качество: HDDVDRip 1080p
Контейнер: MKV
Видео: AVC, 1920x1080 (16:9), 4588 kbps, 23.976 fps, 0.092 bpp
Аудио: русский /; AC3 /; 2.0 /; 48 kHz /; 192 kbps /; 16 bit; ||
Субтитры #1: русские
Субтитры #2: английские

АНОНСЫ ПОПУЛЯРНЫХ РАЗДАЧ

  • Образ Людмилы — возможная ссылка на другого известного советского снайпера, Людмилу Павличенко. Она имела на своем счету более трехсот убийств, а Василий Зайцев — приблизительно 257.
  • Название фильма взято из книги «Враг у ворот: Сражение за Сталинград» (1973) Уильяма Крейга (William Craig), в которой задокументированы реальные военные подвиги Василия Зайцева.
  • Некоторые советские ветераны Сталинграда были настолько оскорблены неточностями в фильме, что они расценили как оскорбление то, как изображена Красная Армия. 7 мая 2001 года, вскоре после того, как прошла премьера фильма в России, ветераны выразили своё недовольство в Думе, требуя запрета фильма, однако эта просьба не была удовлетворена.
  • В действительности никакого счастливого воссоединения Василия Зайцева и Тани Чеховой не было. До конца войны они считали друг друга мертвыми, и о том, что Василий жив, Таня узнала через несколько лет; он уже был женат.
  • В действительности никакого майора Кёнига не существовало. Немцем, застреленным на поединке снайперов, был ас-снайпер полковник СС Хайнц Торвальд. Немцы, не желая признавать убийство своего лучшего снайпера, заявили, что убитый — майор Кёниг. Документы же, найденные Зайцевым на теле убитого, подтверждали, что это — Торвальд.
  • На банкете звучит Гимн СССР, принятый в 1944 году, со словами 1977 года, хотя события в фильме датированы концом 1942 года.
  • В фильме в партийном билете Зайцева указана неверно его дата рождения 3 марта 1915 г. Василий Зайцев родился 23 марта 1915 г.
  • В фильме несколько раз на заднем плане среди предметов декорации можно заметить танк Т-34-85, хотя действие происходит в 1942 году, а этот танк был принят на вооружение только в январе 1944 года.

Код:

General
Unique ID                   : 228612086126691964081998602781161735216 (0xABFD16134D46942DBE196A1FD700C430)
Complete name               : G:\Враг у ворот.2001.HDDVDRip.1080p.DUB.mkv
Format                      : Matroska
Format version              : Version 4 / Version 2
File size                   : 4.37 GiB
Duration                    : 2 h 11 min
Overall bit rate            : 4 776 kb/s
Encoded date                : UTC 2018-04-28 01:02:35
Writing application         : mkvmerge v6.8.0 ('Theme for Great Cities') 32bit built on Mar  2 2014 21:27:07
Writing library             : libebml v1.3.0 + libmatroska v1.4.1

Video
ID                          : 1
Format                      : AVC
Format/Info                 : Advanced Video Codec
Format profile              : High@L4.1
Format settings             : CABAC / 4 Ref Frames
Format settings, CABAC      : Yes
Format settings, ReFrames   : 4 frames
Codec ID                    : V_MPEG4/ISO/AVC
Duration                    : 2 h 11 min
Bit rate                    : 4 588 kb/s
Width                       : 1 920 pixels
Height                      : 1 080 pixels
Display aspect ratio        : 16:9
Frame rate mode             : Constant
Frame rate                  : 23.976 FPS
Color space                 : YUV
Chroma subsampling          : 4:2:0
Bit depth                   : 8 bits
Scan type                   : Progressive
Bits/(Pixel*Frame)          : 0.092
Stream size                 : 4.11 GiB (94%)
Writing library             : x264 core 130 r2273 b3065e6
Encoding settings           : cabac=1 / ref=4 / deblock=1:-3:-3 / analyse=0x3:0x113 / me=umh / subme=11 / psy=1 / psy_rd=1.00:0.15 / mixed_ref=1 / me_range=48 / chroma_me=1 / trellis=2 / 8x8dct=1 / cqm=0 / deadzone=21,11 / fast_pskip=0 / chroma_qp_offset=-4 / threads=6 / lookahead_threads=1 / sliced_threads=0 / nr=0 / decimate=0 / interlaced=0 / bluray_compat=0 / constrained_intra=0 / bframes=8 / b_pyramid=2 / b_adapt=2 / b_bias=0 / direct=2 / weightb=1 / open_gop=0 / weightp=2 / keyint=250 / keyint_min=23 / scenecut=40 / intra_refresh=0 / rc=2pass / mbtree=0 / bitrate=4588 / ratetol=1.0 / qcomp=0.60 / qpmin=0 / qpmax=69 / qpstep=4 / cplxblur=20.0 / qblur=0.5 / ip_ratio=1.40 / pb_ratio=1.30 / aq=2:1.00
Language                    : English
Default                     : Yes
Forced                      : No
Color range                 : Limited
Color primaries             : Generic film
Matrix coefficients         : YCgCo

Audio
ID                          : 2
Format                      : AC-3
Format/Info                 : Audio Coding 3
Codec ID                    : A_AC3
Duration                    : 2 h 11 min
Bit rate mode               : Constant
Bit rate                    : 192 kb/s
Channel(s)                  : 2 channels
Channel positions           : Front: L R
Sampling rate               : 48.0 kHz
Frame rate                  : 31.250 FPS (1536 SPF)
Bit depth                   : 16 bits
Compression mode            : Lossy
Stream size                 : 180 MiB (4%)
Title                       : Дубляж
Language                    : Russian
Service kind                : Complete Main
Default                     : Yes
Forced                      : No

Text #1
ID                          : 3
Format                      : UTF-8
Codec ID                    : S_TEXT/UTF8
Codec ID/Info               : UTF-8 Plain Text
Language                    : Russian
Default                     : No
Forced                      : No

Text #2
ID                          : 4
Format                      : UTF-8
Codec ID                    : S_TEXT/UTF8
Codec ID/Info               : UTF-8 Plain Text
Language                    : English
Default                     : No
Forced                      : No






Скачать Враг.у.ворот.Enemy.at.the.Gates.(Жан-Жак.Анно).[2001.драма.военный.история.HDDVDRip].[1080p].[Dub.(Пифагор)].[R.G.Goldenshara].torrent без регистрации
Золото ЗОЛОТАЯ РАЗДАЧА! СКАЧАННОЕ НЕ ЗАСЧИТЫВАЕТСЯ! Золото
Дата: Зарегистрирован   [ Тип: внутренний ] Как тут cкачать?
MAGNET ссылка
MAGNET ссылка


Скачать .torrent

11 KB

Статус: проверено DHT
Скачан: торрент - 70 раз, раздача полностью - 20 раз
Размер: 4,37 GB
Оценка:  5 (Голосов: 7)
Поблагодарили: 8
Поделиться ссылкой на эту раздачу с друзьями:
В контактеFacebookОдноклассникиTwitterLivejournalМой МирLiveinternet
 

 

Голден Шура

[] 

sobmaster, спасибо! Не успеваю скачивать рипы ag ay

P.S. sobmaster увидел что рип в HDDVDRip и у меня возник вопрос не в тему: не знаешь на фильм Братство волка выходил блюр? Или там тоже только HDDVDRip? ah
 

Голден Шура

[] 

ay az
 

sobmaster

[] 

Голден Шура писал(а):

у меня возник вопрос не в тему: не знаешь на фильм Братство волка выходил блюр? Или там тоже только HDDVDRip? ah
На Братство волка есть блюр и на этот фильм тоже есть блюр, но я сделал рип с HDDVD Remux'а, потому что здесь полный кадр и гораздо лучше детализация, а также более естественная цветовая гамма...
 
Показать сообщения:    


Вы не можете начинать темы
Вы не можете отвечать на сообщения
Вы не можете редактировать свои сообщения
Вы не можете удалять свои сообщения
Вы не можете голосовать в опросах
Вы не можете прикреплять файлы к сообщениям
Вы можете скачивать файлы