Loading...
Error

Скачать На пределе / In the Fade / Aus dem Nichts (Фатих Акин) [2017, Драма, криминал, BDRip] [1080p] [MVO] [iTunes] торрент без регистрации

Статистика раздачи
Размер:  8,77 GB   |    Скачан:  109 раз
Сидов:  2  [  0 KB/s  ]  
 
 
 
Автор Сообщение

leon030982

[] 

Информация о фильме

Название: На пределе
Оригинальное название: Aus dem Nichts
Год выхода: 2017
Жанр: Драма, криминал
Страна: Великобритания
Студия: Full Motion Entertainment, Great Dayne Entertainment, Jopia Productions
Продолжительность: 01:46:12
Перевод: Профессиональный многоголосый | iTunes

Режиссер: Фатих Акин

В ролях: Дайан Крюгер, Денис Москитто, Нуман Аджар, Самия Мюриэль Шанкрен, Йоханнес Криш, Ульрих Тукур, Ульрих Брандхофф, Ханна Хильсдорф, Джем Акын, Йула Будали



О фильме: Идеальная жизнь Кати в один миг превратилась в руины — в результате террористического акта погибли её муж и сын. Друзья и семья пытаются остановить её слезы, помочь найти силы жить одной. В безумном поиске виновников бессмысленного убийства Катя не находит справедливости. И после долгой скорби, в абсолютном бессилии она идёт на радикальные меры.

Качество: BDRip 1080p
Видео: MPEG-4 AVC, 1920x804, 10.8 Mbit/s, 23.976 fps
Звук:
Аудио #01: 48 kHz, AC3, 5.1, 384 Kbps | iTunes | RUS |
Аудио #02: 48 kHz, AC3, 5.1, 640 Kbps | Оригинал | ENG |
Субтитры: Русские (full), английские
General

Unique ID : 204108420180152403988955986433091567950 (0x998DDA11B4693887941159A3BE54014E)

Complete name : C:Video111In.The.Fade.2017.BDRip.1080p.ExKinoRay.mkv

Format : Matroska

Format version : Version 4 / Version 2

File size : 8.77 GiB

Duration : 1 h 46 min

Overall bit rate : 11.8 Mb/s

Movie name : In The Fade 2017 from ExKinoRay

Encoded date : UTC 2018-05-22 18:17:16

Writing application : mkvmerge v7.3.0 ('Nouages') 64bit built on Oct 22 2014 18:53:34

Writing library : libebml v1.3.0 + libmatroska v1.4.1

Video

ID : 1

Format : AVC

Format/Info : Advanced Video Codec

Format profile : High@L4.1

Format settings : CABAC / 5 Ref Frames

Format settings, CABAC : Yes

Format settings, ReFrames : 5 frames

Codec ID : V_MPEG4/ISO/AVC

Duration : 1 h 46 min

Bit rate : 10.8 Mb/s

Width : 1 920 pixels

Height : 804 pixels

Display aspect ratio : 2.40:1

Frame rate mode : Constant

Frame rate : 23.976 (24000/1001) FPS

Color space : YUV

Chroma subsampling : 4:2:0

Bit depth : 8 bits

Scan type : Progressive

Bits/(Pixel*Frame) : 0.292

Stream size : 8.01 GiB (91%)

Writing library : x264 core 148 r2705 3f5ed56

Encoding settings : cabac=1 / ref=5 / deblock=1:-3:-3 / analyse=0x3:0x133 / me=umh / subme=11 / psy=1 / psy_rd=1.05:0.05 / mixed_ref=1 / me_range=48 / chroma_me=1 / trellis=2 / 8x8dct=1 / cqm=0 / deadzone=21,11 / fast_pskip=0 / chroma_qp_offset=-3 / threads=12 / lookahead_threads=3 / sliced_threads=0 / nr=0 / decimate=0 / interlaced=0 / bluray_compat=0 / constrained_intra=0 / bframes=10 / b_pyramid=2 / b_adapt=2 / b_bias=0 / direct=3 / weightb=1 / open_gop=0 / weightp=2 / keyint=240 / keyint_min=23 / scenecut=40 / intra_refresh=0 / rc_lookahead=50 / rc=2pass / mbtree=0 / bitrate=10789 / ratetol=1.0 / qcomp=0.60 / qpmin=0 / qpmax=51 / qpstep=4 / cplxblur=20.0 / qblur=0.5 / vbv_maxrate=50000 / vbv_bufsize=62500 / nal_hrd=none / filler=0 / ip_ratio=1.40 / pb_ratio=1.30 / aq=3:0.80

Language : French

Default : Yes

Forced : No

Audio #1

ID : 2

Format : AC-3

Format/Info : Audio Coding 3

Codec ID : A_AC3

Duration : 1 h 46 min

Bit rate mode : Constant

Bit rate : 384 kb/s

Channel(s) : 6 channels

Channel positions : Front: L C R, Side: L R, LFE

Sampling rate : 48.0 kHz

Frame rate : 31.250 FPS (1536 SPF)

Bit depth : 16 bits

Compression mode : Lossy

Stream size : 292 MiB (3%)

Title : iTunes

Language : Russian

Service kind : Complete Main

Default : Yes

Forced : Yes

Audio #2

ID : 3

Format : AC-3

Format/Info : Audio Coding 3

Codec ID : A_AC3

Duration : 1 h 46 min

Bit rate mode : Constant

Bit rate : 640 kb/s

Channel(s) : 6 channels

Channel positions : Front: L C R, Side: L R, LFE

Sampling rate : 48.0 kHz

Frame rate : 31.250 FPS (1536 SPF)

Bit depth : 16 bits

Compression mode : Lossy

Stream size : 486 MiB (5%)

Title : Original

Language : French

Service kind : Complete Main

Default : No

Forced : No

Text #1

ID : 4

Format : UTF-8

Codec ID : S_TEXT/UTF8

Codec ID/Info : UTF-8 Plain Text

Duration : 1 h 38 min

Bit rate : 70 b/s

Count of elements : 869

Stream size : 50.9 KiB (0%)

Title : Full

Language : Russian

Default : No

Forced : No

Text #2

ID : 5

Format : UTF-8

Codec ID : S_TEXT/UTF8

Codec ID/Info : UTF-8 Plain Text

Duration : 1 h 43 min

Bit rate : 39 b/s

Count of elements : 1037

Stream size : 29.8 KiB (0%)

Title : Full

Language : English

Default : No

Forced : No

Text #3

ID : 6

Format : UTF-8

Codec ID : S_TEXT/UTF8

Codec ID/Info : UTF-8 Plain Text

Duration : 1 h 44 min

Bit rate : 41 b/s

Count of elements : 1162

Stream size : 32.1 KiB (0%)

Title : SDH

Language : English

Default : No

Forced : No

Menu

00:00:00.000 : en:00:00:00.000

00:03:10.440 : en:00:03:10.440

00:10:08.650 : en:00:10:08.650

00:25:42.040 : en:00:25:42.040

00:40:24.797 : en:00:40:24.797

00:48:04.215 : en:00:48:04.215

00:56:55.996 : en:00:56:55.996

01:02:56.648 : en:01:02:56.648

01:14:25.002 : en:01:14:25.002

01:26:23.512 : en:01:26:23.512

01:31:03.875 : en:01:31:03.875

01:40:51.545 : en:01:40:51.545
Релиз от: Автор релиза:




Скачать На.пределе.In.the.Fade.Aus.dem.Nichts.(Фатих.Акин).[2017.Драма.криминал.BDRip].[1080p].[MVO].[iTunes].torrent без регистрации
Золото ЗОЛОТАЯ РАЗДАЧА! СКАЧАННОЕ НЕ ЗАСЧИТЫВАЕТСЯ! Золото
Дата: Зарегистрирован   [ Тип: внутренний ] Как тут cкачать?
MAGNET ссылка
MAGNET ссылка


Скачать .torrent

45 KB

Статус: проверено DHT
Скачан: торрент - 109 раз, раздача полностью - 122 раз
Размер: 8,77 GB
Оценка:  5 (Голосов: 1)
Поблагодарили: 4
Поделиться ссылкой на эту раздачу с друзьями:
В контактеFacebookОдноклассникиTwitterLivejournalМой МирLiveinternet
 

 
Показать сообщения:    


Вы не можете начинать темы
Вы не можете отвечать на сообщения
Вы не можете редактировать свои сообщения
Вы не можете удалять свои сообщения
Вы не можете голосовать в опросах
Вы не можете прикреплять файлы к сообщениям
Вы можете скачивать файлы