Loading...
Error

Скачать Перелом / Fracture (Грегори Хоблит) [2007, триллер, драма, криминал, детектив, BDRip] [1080p] [Dub] [R.G. Goldenshara] торрент без регистрации

Статистика раздачи
Размер:  4,37 GB   |    Скачан:  82 раза
Сидов:  3  [  0 KB/s  ]  
 
 
 
Автор Сообщение

sobmaster

[] 



Перелом
Fracture




Год выпуска: 2007
Страна: США , Германия
Выпущено: Castle Rock Entertainment, New Line Cinema
Слоган: «Я застрелил свою жену... Попробуй докажи!»
Жанр: триллер, драма, криминал, детектив

Продолжительность: 01:53:27
Перевод: Профессиональный (полное дублирование)
Режиссер: Грегори Хоблит
Сценарий: Дэниэл Пайн, Гленн Герс
Продюсер: Чарльз Вайнсток, Сэмюэл Дж. Браун, Майкл Диско
Оператор: Крамер Моргенто
Композитор: Джефф Дэнна, Майкл Дэнна
Художник: Пол Идс, Минди Роффман, Элизабетта Беральдо
Монтаж: Дэвид Розенблюм
В ролях:


Энтони Хопкинс, Райан Гослинг, Дэвид Стрэтэйрн (DA Joe Lobruto), Розамунд Пайк, Эмбет Дэвидц, Билли Бёрк, Клифф Кёртис, Фиона Шоу, Боб Гантон, Джош Стэмберг (Norman Foster), Ксандер Беркли (Judge Moran), Зои Казан (Mona), Джудит Скотт, Гэри Сервантес (Ciro), Петреа Бурхард (Dr. Marion Kang)
Роли дублировали: Владимир Еремин (Энтони Хопкинс), Михаил Тихонов (Райан Гослинг), Вячеслав Баранов (DA Joe Lobruto), Елена Ивасишина (Розамунд Пайк), Нина Тобилевич (Эмбет Дэвидц), Василий Дахненко (Билли Бёрк), Пётр Иващенко (Клифф Кёртис), Ирина Савина (Фиона Шоу), Юрий Деркач (Norman Foster), Петр Тобилевич (Lee Gardner), Елена Войновская (Peg Gardner), Борис Токарев, Всеволод Кузнецов, Михаил Георгиу
Сборы в США: $39 015 018
Сборы в мире: $91 354 215
Сборы в России: $355 000
DVD в США: $17 134 644
Зрители: США 5.67 млн , Франция 1.12 млн , Великобритания 669.3 тыс.
Мировая премьера: 11 апреля 2007
Премьера (РФ): 5 июля 2007, «Каро-Премьер»
Релиз на Blu-ray: 2 июня 2009, «Юниверсал Пикчерс Рус»
Релиз на DVD: 15 июня 2009, «Юниверсал Пикчерс Рус»
MPAA: - Лицам до 17 лет обязательно присутствие взрослого

Описание: Миллионер Тед Кроуфорд (Хопкинс) убивает свою супругу, узнав о её связи с другим мужчиной. До приезда полиции он успевает подменить пистолет и уничтожить следы преступления. Занимающийся этим делом юрист Уильям Бичум (Гослинг) поступает так, как ему велит профессиональная честь, не подозревая, что отпущенный на свободу за недостатком улик Кроуфорд – гораздо более коварный тип, чем ему казалось.


Качество: BDRip 1080p
Контейнер: MKV
Видео: AVC, 1920x816 (2.35:1), 5069 kbps, 23.976 fps, 0.135 bpp
Аудио: русский /; AC3 /; 5.1 /; 48 kHz /; 448 kbps /; 16 bit; ||
Субтитры #1: русские
Субтитры #2: украинские
Субтитры #3: английские
Навигация по главам: есть

АНОНСЫ ПОПУЛЯРНЫХ РАЗДАЧ

  • Когда Бичум сидит в своем офисе, за его спиной стоят коробки с надписями «Народ против Моргенто» и «Народ против Бопре». Крамер Моргенто — оператор фильма, Стивен Бопре — второй ассистент режиссера.
  • Уилли Бичум читает в больнице стихи известного американского детского писателя Доктора Сьюза.

Код:

General
Unique ID                   : 247254546064391771012334467726068837196 (0xBA037E507430621DA9C0781CACBA6B4C)
Complete name               : E:\Мои рипы\Перелом.2007.BDRip.1080p.DUB.mkv
Format                      : Matroska
Format version              : Version 4 / Version 2
File size                   : 4.37 GiB
Duration                    : 1 h 53 min
Overall bit rate            : 5 518 kb/s
Movie name                  : Perelom (2007) -=Release Kinozal.TV-AVC=-
Encoded date                : UTC 2018-05-20 11:31:11
Writing application         : mkvmerge v6.8.0 ('Theme for Great Cities') 32bit built on Mar  2 2014 21:27:07
Writing library             : libebml v1.3.0 + libmatroska v1.4.1

Video
ID                          : 1
Format                      : AVC
Format/Info                 : Advanced Video Codec
Format profile              : High@L4.1
Format settings             : CABAC / 5 Ref Frames
Format settings, CABAC      : Yes
Format settings, ReFrames   : 5 frames
Codec ID                    : V_MPEG4/ISO/AVC
Duration                    : 1 h 53 min
Bit rate                    : 5 069 kb/s
Width                       : 1 920 pixels
Height                      : 816 pixels
Display aspect ratio        : 2.35:1
Frame rate mode             : Constant
Frame rate                  : 23.976 FPS
Color space                 : YUV
Chroma subsampling          : 4:2:0
Bit depth                   : 8 bits
Scan type                   : Progressive
Bits/(Pixel*Frame)          : 0.135
Stream size                 : 3.93 GiB (90%)
Writing library             : x264 core 130 r2273 b3065e6
Encoding settings           : cabac=1 / ref=5 / deblock=1:-3:-3 / analyse=0x3:0x113 / me=umh / subme=11 / psy=1 / psy_rd=1.00:0.15 / mixed_ref=1 / me_range=48 / chroma_me=1 / trellis=2 / 8x8dct=1 / cqm=0 / deadzone=21,11 / fast_pskip=0 / chroma_qp_offset=-4 / threads=6 / lookahead_threads=1 / sliced_threads=0 / nr=0 / decimate=0 / interlaced=0 / bluray_compat=0 / constrained_intra=0 / bframes=8 / b_pyramid=2 / b_adapt=2 / b_bias=0 / direct=2 / weightb=1 / open_gop=0 / weightp=2 / keyint=250 / keyint_min=23 / scenecut=40 / intra_refresh=0 / rc=2pass / mbtree=0 / bitrate=5069 / ratetol=1.0 / qcomp=0.60 / qpmin=0 / qpmax=69 / qpstep=4 / cplxblur=20.0 / qblur=0.5 / ip_ratio=1.40 / pb_ratio=1.30 / aq=2:1.00
Language                    : English
Default                     : Yes
Forced                      : No
Color range                 : Limited
Color primaries             : Generic film
Matrix coefficients         : YCgCo

Audio
ID                          : 2
Format                      : AC-3
Format/Info                 : Audio Coding 3
Codec ID                    : A_AC3
Duration                    : 1 h 53 min
Bit rate mode               : Constant
Bit rate                    : 448 kb/s
Channel(s)                  : 6 channels
Channel positions           : Front: L C R, Side: L R, LFE
Sampling rate               : 48.0 kHz
Frame rate                  : 31.250 FPS (1536 SPF)
Bit depth                   : 16 bits
Compression mode            : Lossy
Stream size                 : 364 MiB (8%)
Title                       : Дубляж
Language                    : Russian
Service kind                : Complete Main
Default                     : Yes
Forced                      : No

Text #1
ID                          : 3
Format                      : UTF-8
Codec ID                    : S_TEXT/UTF8
Codec ID/Info               : UTF-8 Plain Text
Language                    : Russian
Default                     : No
Forced                      : No

Text #2
ID                          : 4
Format                      : UTF-8
Codec ID                    : S_TEXT/UTF8
Codec ID/Info               : UTF-8 Plain Text
Language                    : Ukrainian
Default                     : No
Forced                      : No

Text #3
ID                          : 5
Format                      : UTF-8
Codec ID                    : S_TEXT/UTF8
Codec ID/Info               : UTF-8 Plain Text
Language                    : English
Default                     : No
Forced                      : No

Menu
00:00:00.000                : en:Chapter 1
00:07:10.847                : en:Chapter 2
00:12:22.741                : en:Chapter 3
00:18:11.548                : en:Chapter 4
00:26:42.892                : en:Chapter 5
00:32:41.542                : en:Chapter 6
00:37:43.678                : en:Chapter 7
00:43:38.324                : en:Chapter 8
00:52:11.711                : en:Chapter 9
01:00:17.280                : en:Chapter 10
01:07:02.184                : en:Chapter 11
01:13:37.955                : en:Chapter 12
01:19:31.683                : en:Chapter 13
01:28:27.927                : en:Chapter 14
01:39:11.487                : en:Chapter 15
01:48:56.488                : en:Chapter 16
01:53:27.425                : en:Chapter 17






Скачать Перелом.Fracture.(Грегори.Хоблит).[2007.триллер.драма.криминал.детектив.BDRip].[1080p].[Dub].[R.G.Goldenshara].torrent без регистрации
Золото ЗОЛОТАЯ РАЗДАЧА! СКАЧАННОЕ НЕ ЗАСЧИТЫВАЕТСЯ! Золото
Дата: Зарегистрирован   [ Тип: внутренний ] Как тут cкачать?
MAGNET ссылка
MAGNET ссылка


Скачать .torrent

11 KB

Статус: проверено DHT
Скачан: торрент - 82 раз, раздача полностью - 53 раз
Размер: 4,37 GB
Оценка:  5 (Голосов: 3)
Поблагодарили: 7
Поделиться ссылкой на эту раздачу с друзьями:
В контактеFacebookОдноклассникиTwitterLivejournalМой МирLiveinternet
 

 

Голден Шура

[] 

sobmaster, спасибо! Хорошее кинцо! ay az

P.S. Несколько дней не мог зайти на сайт (You have reached a domain that is suspended и прочее, прочее), хоть другое зеркало работает. У тебя не было такого? Не успел порадоваться восстановлению раздач, опять какие-то траблы
 

sobmaster

[] 

У меня всегда все зеркала в закладках (на всякий случай)... и несколько вариантов обхода блокировок. al Так и прыгаю то туда, то сюда... ag
Скачал Аннигиляцию, жду iTunes - вроде появится 28-го числа...
 

Голден Шура

[] 

sobmaster писал(а):

У меня всегда все зеркала в закладках (на всякий случай)
У меня всего два зеркала, одно из них уже не работает. Отключат второе, вообще беда. ac Причём ладно обычная блокировка, но тут уже что-то новенькое. ai
P.S. У тебя кстати нет вот этого рипчика /viewtopic.php?t=16013002 Или как-нибудь его по-новому залить ah
 

sobmaster

[] 

Голден Шура писал(а):

У тебя кстати нет вот этого рипчика /viewtopic.php?t=16013002 Или как-нибудь его по-новому залить
К сожалению этот рип утерян вместе с диском, который взял у меня мой сын полтора года назад и так и не вернул... ak Ну, значит залью новый! ab
 
Показать сообщения:    


Вы не можете начинать темы
Вы не можете отвечать на сообщения
Вы не можете редактировать свои сообщения
Вы не можете удалять свои сообщения
Вы не можете голосовать в опросах
Вы не можете прикреплять файлы к сообщениям
Вы можете скачивать файлы