Loading...
Error

Скачать Tomb Raider: Лара Крофт / Tomb Raider (Роар Утхауг) [2018, боевик, приключения, WEB-DL 1080p] [Ukr DUB] + [Orig] (Eng) + [Sub] (Eng) торрент без регистрации

Статистика раздачи
Размер:  5,45 GB   |    Скачан:  200 раз
Сидов:  75  [  0 KB/s  ]  
 
 
 
Автор Сообщение

leon030982

[] 

Tomb Raider: Лара Крофт / Tomb Raider


Год выпуска: 2018
Жанр: боевик, приключения
Выпущено: Великобритания, США
Продолжительность: 01:57:49
Перевод: Украинский (дублированный)
Субтитры: английские

Режиссер: Роар Утхауг

В ролях: Алисия Викандер, Доминик Уэст, Уолтон Гоггинс, Дэниэл Ву, Кристин Скотт Томас, Дерек Джекоби, Александр Виллауме, Тамер Барджаг, Эдриан Коллинз, Кинэн Эррисон

О фильме: Лара Крофт - весьма самостоятельная дочь эксцентричного искателя приключений, который пропал, едва она стала подростком. Теперь ей двадцать один, она бесцельно проживает свою жизнь, курьером рассекая на байке по забитым улицам восточного Лондона, а ее заработка едва хватает на оплату квартиры и занятий в колледже. Решительно настроенная пробиться сама, она отказывается брать на себя руководство глобальной империей отца, столь же категорично отвергая мысль о том, что он действительно пропал. Слыша советы о том, что ей нужно смириться с этим фактом и жить дальше после семи лет бесплодных поисков, Лара уже и сама не понимает, что же заставляет ее распутывать обстоятельства его таинственной смерти.



Качество: WEB-DL 1080p
Видео: MPEG4 AVC, 1920x800, 5658 kb/s
Аудио 1: AC3, 6 ch, 640 Кбит/с - Ukr DUB
Аудио 2: AC3, 6 ch, 640 Кбит/с - Eng

Релиз --
General
Unique ID : 227651337632380879040026109608756105679 (0xAB440D8478A4EFBCBC577F1A8E21D1CF)
Complete name : F:\Tomb.Raider.2018.1080p.AMZN.WEB-DL.mkv
Format : Matroska
Format version : Version 4 / Version 2
File size : 5.45 GiB
Duration : 1 h 57 min
Overall bit rate mode : Variable
Overall bit rate : 6 622 kb/s
Encoded date : UTC 2018-05-29 20:08:38
Writing application : mkvmerge v8.3.0 ('Over the Horizon') 64bit
Writing library : libebml v1.3.1 + libmatroska v1.4.2

Video
ID : 1
Format : AVC
Format/Info : Advanced Video Codec
Format profile : High@L4
Format settings : CABAC / 4 Ref Frames
Format settings, CABAC : Yes
Format settings, RefFrames : 4 frames
Codec ID : V_MPEG4/ISO/AVC
Duration : 1 h 57 min
Bit rate mode : Variable
Bit rate : 5 658 kb/s
Maximum bit rate : 15.0 Mb/s
Width : 1 920 pixels
Height : 800 pixels
Display aspect ratio : 2.40:1
Frame rate mode : Constant
Frame rate : 23.976 (24000/1001) FPS
Color space : YUV
Chroma subsampling : 4:2:0
Bit depth : 8 bits
Scan type : Progressive
Bits/(Pixel*Frame) : 0.154
Stream size : 4.66 GiB (85%)
Default : Yes
Forced : No
Color range : Limited
Color primaries : BT.709
Transfer characteristics : BT.709
Matrix coefficients : BT.709

Audio #1
ID : 2
Format : AC-3
Format/Info : Audio Coding 3
Format settings, Endianness : Big
Codec ID : A_AC3
Duration : 1 h 57 min
Bit rate mode : Constant
Bit rate : 192 kb/s
Channel(s) : 2 channels
Channel positions : Front: L R
Sampling rate : 48.0 kHz
Frame rate : 31.250 FPS (1536 SPF)
Bit depth : 16 bits
Compression mode : Lossy
Stream size : 162 MiB (3%)
Title : Postmodern
Language : Ukrainian
Service kind : Complete Main
Default : Yes
Forced : No

Audio #2
ID : 3
Format : E-AC-3
Format/Info : Enhanced Audio Coding 3
Format settings, Endianness : Big
Codec ID : A_EAC3
Duration : 1 h 57 min
Bit rate mode : Constant
Bit rate : 640 kb/s
Channel(s) : 6 channels
Channel positions : Front: L C R, Side: L R, LFE
Sampling rate : 48.0 kHz
Frame rate : 187.500 FPS (256 SPF)
Compression mode : Lossy
Stream size : 539 MiB (10%)
Language : English
Service kind : Complete Main
Default : No
Forced : No

Text
ID : 4
Format : UTF-8
Codec ID : S_TEXT/UTF8
Codec ID/Info : UTF-8 Plain Text
Language : English
Default : No
Forced : No

Menu
00:00:00.000 : en:1
00:06:50.000 : en:2
00:11:41.000 : en:3
00:17:28.000 : en:4
00:24:04.000 : en:5
00:30:42.000 : en:6
00:35:42.000 : en:7
00:41:38.000 : en:8
00:46:55.000 : en:9
00:53:42.000 : en:10
00:59:38.000 : en:11
01:04:50.000 : en:12
01:09:58.000 : en:13
01:16:50.000 : en:14
01:21:50.000 : en:15
01:27:41.000 : en:16
01:32:56.000 : en:17
01:38:41.000 : en:18
01:44:44.000 : en:19
01:51:20.000 : en:20



Скачать Tomb.Raider.Лара.Крофт.Tomb.Raider.(Роар.Утхауг).[2018.боевик.приключения.WEB-DL.1080p].[Ukr.DUB].+.[Orig].(Eng).+.[Sub].(Eng).torrent без регистрации
Золото ЗОЛОТАЯ РАЗДАЧА! СКАЧАННОЕ НЕ ЗАСЧИТЫВАЕТСЯ! Золото
Дата: Зарегистрирован   [ Тип: внешний ] Как тут cкачать?
MAGNET ссылка
MAGNET ссылка


Скачать .torrent

14 KB

Статус: проверено DHT
Скачан: торрент - 200 раз, раздача полностью - 289 раз
Размер: 5,45 GB
Оценка:  4 (Голосов: 4)
Поблагодарили: 5
Поделиться ссылкой на эту раздачу с друзьями:
В контактеFacebookОдноклассникиTwitterLivejournalМой МирLiveinternet
 

 
Показать сообщения:    


Вы не можете начинать темы
Вы не можете отвечать на сообщения
Вы не можете редактировать свои сообщения
Вы не можете удалять свои сообщения
Вы не можете голосовать в опросах
Вы не можете прикреплять файлы к сообщениям
Вы можете скачивать файлы