Loading...
Error

Скачать Величайший шоумен / The Greatest Showman (Майкл Грэйси) [2017, Драма, биография, мюзикл, BDRip][1080p] [Dub Rus Ukr Лицензия] [R.G. GoldenShara] торрент без регистрации

Статистика раздачи
Размер:  4,7 GB   |    Скачан:  76 раз
Сидов:  2  [  0 KB/s  ]   Личеров:  1  [  0 KB/s  ]  
 
 
 
Автор Сообщение

Magnetto83

[] 


Величайший шоумен / The Greatest Showman


Год выпуска: 2017
Выпущено: США | TSG Entertainment
Жанр: Драма, биография, мюзикл
Продолжительность: 01:44:49
Перевод 1 и 2: Профессиональный (полное дублирование) | Blu-Ray CEE |
Субтитры: Русские (Форс.+Полные), Украинские (Форс.+Полные), Английские (Full+SHD+SHD Colored)
Навигация по главам: Сохранены оригинальные главы как на Blu-ray

Слоган: «Невозможное возможно»

Режиссер: Майкл Грэйси

В ролях: Хью Джекман, Зак Эфрон, Мишель Уильямс, Ребекка Фергюсон (II), Зендея, Кила Сеттл, Яхья Абдул-Матин II, Остин Джонсон, Эллис Рубин, Скайлар Данн

Описание: Финеас Тейлор Барнум всегда мечтал войти в историю, но все его занятия не приносили ему удовольствия. И когда, казалось, весь мир обернулся против него, он решает пойти вслед за своей мечтой. Барнум создает завораживающее представление-сенсацию, которое стало рождением мирового шоу-бизнеса.



Возраст: 12+ (Зрителям, достигшим 6 лет)

Рейтинг MPAA: PG (Рекомендуется присутствие родителей)

Качество: BDRip 1080p
Формат: MKV
Видео кодек: H.264
Аудио кодек: AC3
Видео: 1920x800 (2.40:1), 5502 Кбит/с, 23.976 fps
Аудио 1: Русский Dolby Digital 5.1 (448 Кбит/с) - Вшит в контейнер
Аудио 2: Украинский Dolby Digital 5.1 (448 Кбит/с) - Отдельным Файлом


x264 [info]: frame I:1265 Avg QP:13.92 size:173614
x264 [info]: frame P:38876 Avg QP:17.04 size: 54050
x264 [info]: frame B:110651 Avg QP:19.44 size: 18210
x264 [info]: consecutive B-frames: 2.6% 8.9% 6.7% 44.7% 10.7% 14.3% 5.2% 6.5% 0.4%
x264 [total]: encoded 150792 frames, 1.50 fps, 5515.21 kb/s



General
Complete name : G:\Видео\Мои Рипы 1080p\Кино-Хиты 2017\Величайший шоумен 2017 Dub Rus Ukr BDRip 1080p\Величайший шоумен 2017 Dub BDRip 1080p.mkv
Format : Matroska
Format version : Version 4 / Version 2
File size : 4.37 GiB
Duration : 1h 44mn
Overall bit rate : 5 966 Kbps
Movie name : Величайший шоумен 2017 Dub Rus BDRip 1080p By R.G. GoldenShara
Encoded date : UTC 2018-04-27 12:44:02
Writing application : mkvmerge v7.0.0 ('Where We Going') 64bit built on Jun 9 2014 15:16:27
Writing library : libebml v1.3.0 + libmatroska v1.4.1
Attachements : Cover
DURATION : 01:43:48.430000000
NUMBER_OF_FRAMES : 1375
NUMBER_OF_BYTES : 67745
_STATISTICS_WRITING_APP : mkvmerge v7.0.0 ('Where We Going') 64bit built on Jun 9 2014 15:16:27
_STATISTICS_WRITING_DATE_UTC : 2018-04-27 12:44:02
_STATISTICS_TAGS : BPS DURATION NUMBER_OF_FRAMES NUMBER_OF_BYTES

Video
ID : 1
Format : AVC
Format/Info : Advanced Video Codec
Format profile : High@L4.1
Format settings, CABAC : Yes
Format settings, ReFrames : 5 frames
Codec ID : V_MPEG4/ISO/AVC
Duration : 1h 44mn
Bit rate : 5 515 Kbps
Width : 1 920 pixels
Height : 800 pixels
Display aspect ratio : 2.40:1
Frame rate mode : Constant
Frame rate : 23.976 fps
Color space : YUV
Chroma subsampling : 4:2:0
Bit depth : 8 bits
Scan type : Progressive
Bits/(Pixel*Frame) : 0.150
Stream size : 3.95 GiB (91%)
Title : Величайший шоумен 2017 BDRip 1080p Magnetto 83
Writing library : x264 core 146 r2538 121396c
Encoding settings : cabac=1 / ref=5 / deblock=1:-3:-3 / analyse=0x3:0x113 / me=umh / subme=11 / psy=1 / psy_rd=1.00:0.00 / mixed_ref=1 / me_range=32 / chroma_me=1 / trellis=2 / 8x8dct=1 / cqm=0 / deadzone=21,11 / fast_pskip=0 / chroma_qp_offset=-2 / threads=3 / lookahead_threads=1 / sliced_threads=0 / nr=0 / decimate=1 / interlaced=0 / bluray_compat=0 / constrained_intra=0 / bframes=8 / b_pyramid=2 / b_adapt=2 / b_bias=0 / direct=3 / weightb=1 / open_gop=0 / weightp=2 / keyint=250 / keyint_min=23 / scenecut=40 / intra_refresh=0 / rc=2pass / mbtree=0 / bitrate=5515 / ratetol=1.0 / qcomp=0.60 / qpmin=0 / qpmax=69 / qpstep=4 / cplxblur=20.0 / qblur=0.5 / ip_ratio=1.40 / pb_ratio=1.30 / aq=2:1.00
Language : English
Default : Yes
Forced : No

Audio
ID : 2
Format : AC-3
Format/Info : Audio Coding 3
Mode extension : CM (complete main)
Format settings, Endianness : Big
Codec ID : A_AC3
Duration : 1h 44mn
Bit rate mode : Constant
Bit rate : 448 Kbps
Channel(s) : 6 channels
Channel positions : Front: L C R, Side: L R, LFE
Sampling rate : 48.0 KHz
Compression mode : Lossy
Stream size : 336 MiB (8%)
Title : DD 5.1 @ 448 kbps - Дубляж | Blu-ray CEE |
Language : Russian
Default : Yes
Forced : No

Text #1
ID : 3
Format : UTF-8
Codec ID : S_TEXT/UTF8
Codec ID/Info : UTF-8 Plain Text
Title : Форс. (Только на песни)
Language : Russian
Default : Yes
Forced : No

Text #2
ID : 4
Format : UTF-8
Codec ID : S_TEXT/UTF8
Codec ID/Info : UTF-8 Plain Text
Title : Форс.
Language : Russian
Default : No
Forced : No

Text #3
ID : 5
Format : UTF-8
Codec ID : S_TEXT/UTF8
Codec ID/Info : UTF-8 Plain Text
Title : Полные | Blu-ray CEE |
Language : Russian
Default : No
Forced : No

Text #4
ID : 6
Format : UTF-8
Codec ID : S_TEXT/UTF8
Codec ID/Info : UTF-8 Plain Text
Title : Полные | Focs Studio |
Language : Russian
Default : No
Forced : No

Text #5
ID : 7
Format : UTF-8
Codec ID : S_TEXT/UTF8
Codec ID/Info : UTF-8 Plain Text
Title : Форс.
Language : Ukrainian
Default : No
Forced : No

Text #6
ID : 8
Format : UTF-8
Codec ID : S_TEXT/UTF8
Codec ID/Info : UTF-8 Plain Text
Title : Повні
Language : Ukrainian
Default : No
Forced : No

Text #7
ID : 9
Format : UTF-8
Codec ID : S_TEXT/UTF8
Codec ID/Info : UTF-8 Plain Text
Title : Full
Language : English
Default : No
Forced : No

Text #8
ID : 10
Format : UTF-8
Codec ID : S_TEXT/UTF8
Codec ID/Info : UTF-8 Plain Text
Title : SDH
Language : English
Default : No
Forced : No

Text #9
ID : 11
Format : UTF-8
Codec ID : S_TEXT/UTF8
Codec ID/Info : UTF-8 Plain Text
Title : SDH-Colored
Language : English
Default : No
Forced : No

Menu
00:00:00.000 : en:00:00:00.000
00:03:21.618 : en:00:03:21.618
00:11:33.985 : en:00:11:33.985
00:16:21.314 : en:00:16:21.314
00:21:13.731 : en:00:21:13.731
00:25:04.169 : en:00:25:04.169
00:32:10.178 : en:00:32:10.178
00:36:09.626 : en:00:36:09.626
00:41:38.413 : en:00:41:38.413
00:44:41.053 : en:00:44:41.053
00:48:24.151 : en:00:48:24.151
00:53:11.146 : en:00:53:11.146
00:56:20.711 : en:00:56:20.711
01:01:34.816 : en:01:01:34.816
01:07:33.883 : en:01:07:33.883
01:12:00.983 : en:01:12:00.983
01:18:23.699 : en:01:18:23.699
01:22:07.131 : en:01:22:07.131
01:29:04.798 : en:01:29:04.798
01:37:09.449 : en:01:37:09.449







Скачать Величайший.шоумен.The.Greatest.Showman.(Майкл.Грэйси).[2017.Драма.биография.мюзикл.BDRip][1080p].[Dub.Rus.Ukr.Лицензия].[R.G.GoldenShara].torrent без регистрации
Золото ЗОЛОТАЯ РАЗДАЧА! СКАЧАННОЕ НЕ ЗАСЧИТЫВАЕТСЯ! Золото
Дата: Зарегистрирован   [ Тип: внутренний ] Как тут cкачать?
MAGNET ссылка
MAGNET ссылка


Скачать .torrent

13 KB

Статус: проверено
Скачан: торрент - 76 раз, раздача полностью - 18 раз
Размер: 4,7 GB
Оценка:  5 (Голосов: 3)
Поблагодарили: 8
Поделиться ссылкой на эту раздачу с друзьями:
В контактеFacebookОдноклассникиTwitterLivejournalМой МирLiveinternet
 

 

Magnetto83

[] 

ab Релиз обновлен! Добавлена украинская звуковая дорожка 448 Кбпс; русская дорожка 384 Кбпс с iTunes замена на дорожку с 448 Кбпс, вшиты доп. русские и украинские субтитры. ad
 

Kitaec1

[] 

Спасибо, ждем раздачу. ab
 
Показать сообщения:    


Вы не можете начинать темы
Вы не можете отвечать на сообщения
Вы не можете редактировать свои сообщения
Вы не можете удалять свои сообщения
Вы не можете голосовать в опросах
Вы не можете прикреплять файлы к сообщениям
Вы можете скачивать файлы