Loading...
Error

Скачать Шесть / Six (Сезон 02, серии 01-06 из 10) (Лесли Линка Глаттер, Микаэл Саломон) [2018, Боевик, драма, военный, история, WEBRip] [DVO] (Hamsterstudio) торрент без регистрации

Статистика раздачи
Размер:  2,24 GB   |    Скачан:  175 раз
Сидов:  1  [  0 KB/s  ]  
 
 
 
Автор Сообщение

leon030982

[] 

Шесть / Six



Год выпуска: 2018
Жанр: Боевик, драма, военный, история
Выпущено: США
Продолжительность: 1 x ~ 00:45:00
Перевод: Профессиональный (двухголосый) [Hamsterstudio]

Режиссер: Лесли Линка Глаттер, Микаэл Саломон

В ролях: Бэрри Слоун, Кайл Шмид, Хуан Пабло Раба, Эдвин Ходж, Брианна Дэвис, Надин Веласкес, Доминик Адамс, Уолтон Гоггинс, Джейлен Мур

О фильме: Военный сериал «Six» рассказывает о деятельности т.н. «SEAL Team Six» - «морских котиках» ВМС США и вдохновлён славной историей этого специального подразделения. Эта группа быстрого развёртывания принимает участие в самых сложных антитеррористических операциях, проводимых Америкой в различных частях света. В том числе, её бойцы участвовали в уничтожении Бен Ладена. Характерно, что конкретные детали деятельности группы, как правило, не комментируются ни Белым Домом, ни Министерством обороны. Отделение по специальным миссиям, как ещё называют «SEAL Team Six» в американских СМИ, тесно сотрудничает с ЦРУ, что говорит о специфике его деятельности



Качество: WEBRip
Формат: AVI
Видео кодек: XviD
Аудио кодек: MP3
Видео: 720x400 (1.80:1), 23.976 fps, XviD ~1479 kbps avg
Аудио: 48 kHz, MPEG Layer 3, 2 ch, ~128.00 kbps avg
General
Complete name : E:\SIX.S02E01.WEBRip.HamsterStudio.avi
Format : AVI
Format/Info : Audio Video Interleave
File size : 398 MiB
Duration : 45 min 3 s
Overall bit rate : 1 235 kb/s
Writing application : VirtualDubMod 1.5.10.2 (build 2540/release)
Writing library : VirtualDubMod build 2540/release

Video
ID : 0
Format : MPEG-4 Visual
Format profile : Advanced Simple@L5
Format settings : BVOP2
Format settings, BVOP : 2
Format settings, QPel : No
Format settings, GMC : No warppoints
Format settings, Matrix : Default (H.263)
Muxing mode : Packed bitstream
Codec ID : XVID
Codec ID/Hint : XviD
Duration : 45 min 3 s
Bit rate : 1 049 kb/s
Width : 720 pixels
Height : 400 pixels
Display aspect ratio : 16:9
Frame rate : 23.976 (24000/1001) FPS
Color space : YUV
Chroma subsampling : 4:2:0
Bit depth : 8 bits
Scan type : Progressive
Compression mode : Lossy
Bits/(Pixel*Frame) : 0.152
Stream size : 338 MiB (85%)
Writing library : XviD 66

Audio
ID : 1
Format : MPEG Audio
Format version : Version 1
Format profile : Layer 3
Format settings : Joint stereo / MS Stereo
Mode : Joint stereo
Mode extension : MS Stereo
Codec ID : 55
Codec ID/Hint : MP3
Duration : 45 min 3 s
Bit rate mode : Constant
Bit rate : 128 kb/s
Channel(s) : 2 channels
Sampling rate : 48.0 kHz
Compression mode : Lossy
Stream size : 41.2 MiB (10%)
Alignment : Aligned on interleaves
Внимание! Раздача ведётся путём добавления новых серий; при каждом добавлении создётся новый торрент. Чтобы начать докачку новой серии, пользователям необходимо сделать следующее: (1) остановить скачивание, (2) удалить старый торрент у себя из клиента (старые серии удалять не надо), (3) скачать новый торрент и запустить его у себя в клиенте вместо старого, при этом указать клиенту путь в старую папку куда и должно происходить скачивание новых серий.
Ваш клиент при этом должен произвести хеширование (проверку) старой папки (если не производит сам - помогите ему сделать это), и будет докачивать только те серии которых у вас ещё нет. Старые серии при этом не удаляются, а продолжают раздаваться!
Eсли вы уже удалили старые серии, то предотвратить повторную закачку старых серий можно, отжав галочку в соответсвующих местах при запуске нового торрента.



Скачать Шесть.Six.(Сезон.02.серии.01-06.из.10).(Лесли.Линка.Глаттер.Микаэл.Саломон).[2018.Боевик.драма.военный.история.WEBRip].[DVO].(Hamsterstudio).torrent без регистрации
Золото ЗОЛОТАЯ РАЗДАЧА! СКАЧАННОЕ НЕ ЗАСЧИТЫВАЕТСЯ! Золото
Дата: Зарегистрирован   [ Тип: внутренний ] Как тут cкачать?
MAGNET ссылка
MAGNET ссылка


Скачать .torrent

12 KB

Статус: проверено DHT
Скачан: торрент - 175 раз, раздача полностью - 3 раз
Размер: 2,24 GB
Оценка:  - (Голосов: 0)
Поблагодарили: 0
Поделиться ссылкой на эту раздачу с друзьями:
В контактеFacebookОдноклассникиTwitterLivejournalМой МирLiveinternet
 

 
Показать сообщения:    


Вы не можете начинать темы
Вы не можете отвечать на сообщения
Вы не можете редактировать свои сообщения
Вы не можете удалять свои сообщения
Вы не можете голосовать в опросах
Вы не можете прикреплять файлы к сообщениям
Вы можете скачивать файлы