Loading...
Error

Скачать Грезы / Reverie (Сезон 01, серии 01-03 из 10) (Мэтт Эрл Бисли, Жаума Кольет-Серра) [2018, триллер, драма, WEB-DL 1080p] [MVO] (SDI Media) + [Original] + [Subs] (Eng) торрент без регистрации

Статистика раздачи
Размер:  8,18 GB   |    Скачан:  94 раза
Сидов:  1  [  0 KB/s  ]  
 
 
 
Автор Сообщение

leon030982

[] 

Грезы / Reverie
Год выпуска: 2018
Страна: США
Жанр: Триллер, драма
Продолжительность: ~ 00:44:00
Перевод: Профессиональный (многоголосый закадровый) SDI Media

Режиссёр: Мэтт Эрл Бисли, Жаума Кольет-Серра, Кеннет Финк

В ролях: Сара Шахи, Дэннис Хэйсбёрт, Кэтрин Моррис, Сендхил Рамамурти, Джессика Лу, Джон Флетчер, Гари Краус, Саша Компере, Тиша Френч, Оливия Агилар

Описание
Бывшего переговорщика и поведенческого эксперта Мару привлекают к проекту продвинутой программы виртуальной реальности, пользователи которой отказались возвращаться и впали в опасную виртуальную кому. Ей предстоит проникнуть в сознание других людей, чтобы убедить их вернуться в реальный мир.



Качество: WEB-DL 1080p
Контейнер: MKV
Видео: H.264, 1920x1080 (16:9), 23.976 fps, ~ 9000 Kbps
Аудио: AC3, 48 kHz, 2ch, 192 kbps - Rus
Аудио 2: EAC3, 48 kHz, 6 ch, 640 kbps - Eng
Субтитры: Английские
Khoren2013

Перевод: Профессиональный (многоголосый закадровый) SDI Media
General
Unique ID : 250462820807015964599729942780717296241 (0xBC6D6278BC8AABC1AD17187B3B7FEA71)
Complete name : E:\Torrent\Reverie.S01.1080p.AMZN.WEB-DL.H.264-SDI\Reverie.S01E01.Apertus.1080p.AMZN.WEB-DL.H.264-SDI.mkv
Format : Matroska
Format version : Version 4 / Version 2
File size : 2.98 GiB
Duration : 42 min 56 s
Overall bit rate : 9 951 kb/s
Encoded date : UTC 2018-06-01 08:43:29
Writing application : mkvmerge v18.0.0 ('Apricity') 64-bit
Writing library : libebml v1.3.5 + libmatroska v1.4.8

Video
ID : 1
Format : AVC
Format/Info : Advanced Video Codec
Format profile : High@L4
Format settings : CABAC / 4 Ref Frames
Format settings, CABAC : Yes
Format settings, RefFrames : 4 frames
Codec ID : V_MPEG4/ISO/AVC
Duration : 42 min 56 s
Bit rate : 9 116 kb/s
Width : 1 920 pixels
Height : 1 080 pixels
Display aspect ratio : 16:9
Frame rate mode : Constant
Frame rate : 23.976 (24000/1001) FPS
Color space : YUV
Chroma subsampling : 4:2:0
Bit depth : 8 bits
Scan type : Progressive
Bits/(Pixel*Frame) : 0.183
Stream size : 2.73 GiB (92%)
Language : English
Default : Yes
Forced : No
Color range : Limited
Color primaries : BT.709
Transfer characteristics : BT.709
Matrix coefficients : BT.709

Audio #1
ID : 2
Format : AC-3
Format/Info : Audio Coding 3
Codec ID : A_AC3
Duration : 42 min 56 s
Bit rate mode : Constant
Bit rate : 192 kb/s
Channel(s) : 2 channels
Channel positions : Front: L R
Sampling rate : 48.0 kHz
Frame rate : 31.250 FPS (1536 SPF)
Bit depth : 16 bits
Compression mode : Lossy
Stream size : 59.0 MiB (2%)
Language : Russian
Service kind : Complete Main
Default : Yes
Forced : No

Audio #2
ID : 3
Format : E-AC-3
Format/Info : Enhanced Audio Coding 3
Codec ID : A_EAC3
Duration : 42 min 56 s
Bit rate mode : Constant
Bit rate : 640 kb/s
Channel(s) : 6 channels
Channel positions : Front: L C R, Side: L R, LFE
Sampling rate : 48.0 kHz
Frame rate : 187.500 FPS (256 SPF)
Compression mode : Lossy
Stream size : 197 MiB (6%)
Language : English
Service kind : Complete Main
Default : No
Forced : No

Text #1
ID : 4
Format : UTF-8
Codec ID : S_TEXT/UTF8
Codec ID/Info : UTF-8 Plain Text
Duration : 42 min 13 s
Bit rate : 62 b/s
Count of elements : 765
Stream size : 19.5 KiB (0%)
Language : English
Default : No
Forced : No

Text #2
ID : 5
Format : UTF-8
Codec ID : S_TEXT/UTF8
Codec ID/Info : UTF-8 Plain Text
Duration : 42 min 13 s
Bit rate : 71 b/s
Count of elements : 910
Stream size : 22.1 KiB (0%)
Title : SDH
Language : English
Default : No
Forced : No
Внимание! Раздача ведётся путём добавления новых серий; при каждом добавлении создётся новый торрент. Чтобы начать докачку новой серии, пользователям необходимо сделать следующее:
Остановить скачивание.
Удалить старый торрент у себя из клиента (старые серии удалять не надо).
Скачать новый торрент и запустить его у себя в клиенте вместо старого, при этом указать клиенту путь в старую папку куда и должно происходить скачивание новых серий.
Ваш клиент при этом должен произвести хеширование (проверку) старой папки (если не производит сам - помогите ему сделать это), и будет докачивать только те серии которых у вас ещё нет. Старые серии при этом не удаляются, а продолжают раздаваться!
Eсли вы уже удалили старые серии, то предотвратить повторную закачку старых серий можно, отжав галочку в соответсвующих местах при запуске нового торрента. По возможности, желательно не удалять старые серии как можно дольше чтобы релизёр не столько продолжал раздавать старые серии, а смог сконцентрироваться на новых.



Скачать Грезы.Reverie.(Сезон.01.серии.01-03.из.10).(Мэтт.Эрл.Бисли.Жаума.Кольет-Серра).[2018.триллер.драма.WEB-DL.1080p].[MVO].(SDI.Media).+.[Original].+.[Subs].(Eng).torrent без регистрации
Золото ЗОЛОТАЯ РАЗДАЧА! СКАЧАННОЕ НЕ ЗАСЧИТЫВАЕТСЯ! Золото
Дата: Зарегистрирован   [ Тип: внутренний ] Как тут cкачать?
MAGNET ссылка
MAGNET ссылка


Скачать .torrent

21 KB

Статус: проверено DHT
Скачан: торрент - 94 раз, раздача полностью - 0 раз
Размер: 8,18 GB
Оценка:  - (Голосов: 0)
Поблагодарили: 0
Поделиться ссылкой на эту раздачу с друзьями:
В контактеFacebookОдноклассникиTwitterLivejournalМой МирLiveinternet
 

 
Показать сообщения:    


Вы не можете начинать темы
Вы не можете отвечать на сообщения
Вы не можете редактировать свои сообщения
Вы не можете удалять свои сообщения
Вы не можете голосовать в опросах
Вы не можете прикреплять файлы к сообщениям
Вы можете скачивать файлы