Loading...
Error

Скачать Дэдпул 2 / Deadpool 2 (Дэвид Литч) [2018, фантастика, боевик, комедия, приключения, TS *PROPER*] [DUB] торрент без регистрации

Статистика раздачи
Размер:  1,37 GB   |    Скачан:  222 раза
Сидов:  10  [  7 KB/s  ]  
 
 
 
Автор Сообщение

leon030982

[] 

Информация о фильме

Название: Дэдпул 2
Оригинальное название: Deadpool 2
Год выхода: 2018
Жанр: фантастика, боевик, комедия, приключения
Страна: США
Продолжительность: 01:53:23
Перевод:Профессиональный (полное дублирование)

Режиссер: Дэвид Литч

В ролях: Джош Бролин, Райан Рейнольдс, Морена Баккарин, Зази Битц, Брианна Хилдебранд, Брэд Питт, Билл Скарсгард, ТиДжей Миллер, Терри Крюс, Роб Делани

О фильме: Единственный и неповторимый болтливый наемник — вернулся! Ещё более масштабный, ещё более разрушительный и даже ещё более голозадый, чем прежде! Когда в его жизнь врывается суперсолдат с убийственной миссией, Дэдпул вынужден задуматься о дружбе, семье и о том, что на самом деле значит быть героем, попутно надирая 50 оттенков задниц. Потому что иногда чтобы делать хорошие вещи, нужно использовать грязные приёмчики



Файл
Кодек: XviD
Качество: TS *PROPER*
Видео: MPEG4, XviD, 720x304 (2.35:1), 30.000 fps, 1 531 Kbps (0.233 bit/pixel)
Аудио: AC-3, 48.0 KHz, 2 ch, 192 Kbps, CBR
Субтитры: Отсутствуют

Сэмпл
Общее

Полное имя : Deadpool.2.2018.TS.avi

Формат : AVI

Формат/Информация : Audio Video Interleave

Размер файла : 1,37 Гбайт

Продолжительность : 1 ч. 53 м.

Общий поток : 1735 Кбит/сек

Библиотека кодирования : VirtualDub build 35491/release

Видео

Идентификатор : 0

Формат : MPEG-4 Visual

Профиль формата : Advanced Simple@L4

Настройки формата : BVOP2

Параметр BVOP формата : 2

Параметр QPel формата : Нет

Параметр GMC формата : Без точки перехода

Параметр матрицы формата : Default (H.263)

Режим смешивания : Сжатый битовый поток

Идентификатор кодека : XVID

Идентификатор кодека/Подсказка : XviD

Продолжительность : 1 ч. 53 м.

Битрейт : 1531 Кбит/сек

Ширина : 720 пикселей

Высота : 304 пикселя

Соотношение сторон : 2,35:1

Частота кадров : 30,000 кадров/сек

Цветовое пространство : YUV

Субдискретизация насыщенности : 4:2:0

Битовая глубина : 8 бит

Тип развёртки : Прогрессивная

Метод сжатия : С потерями

Бит/(Пиксели*Кадры) : 0.233

Размер потока : 1,21 Гбайт (88%)

Библиотека кодирования : XviD 67

Аудио

Идентификатор : 1

Формат : AC-3

Формат/Информация : Audio Coding 3

Идентификатор кодека : 2000

Продолжительность : 1 ч. 53 м.

Вид битрейта : Постоянный

Битрейт : 192 Кбит/сек

Каналы : 2 канала

Расположение каналов : Front: L R

Частота : 48,0 КГц

Частота кадров : 31,250 кадров/сек (1536 SPF)

Битовая глубина : 16 бит

Метод сжатия : С потерями

Размер потока : 156 Мбайт (11%)

Выравнивание : Соединение по промежуткам

Продолжительность промежутка : 32 мс. (0,96 видеокадр)

Время предзагрузки промежутка : 512 мс



Скачать Дэдпул.2.Deadpool.2.(Дэвид.Литч).[2018.фантастика.боевик.комедия.приключения.TS.*PROPER*].[DUB].torrent без регистрации
Золото ЗОЛОТАЯ РАЗДАЧА! СКАЧАННОЕ НЕ ЗАСЧИТЫВАЕТСЯ! Золото
Дата: Зарегистрирован   [ Тип: внутренний ] Как тут cкачать?
MAGNET ссылка
MAGNET ссылка


Скачать .torrent

15 KB

Статус: Τ временная раздача
Скачан: торрент - 222 раз, раздача полностью - 303 раз
Размер: 1,37 GB
Оценка:  5 (Голосов: 1)
Поблагодарили: 8
Поделиться ссылкой на эту раздачу с друзьями:
В контактеFacebookОдноклассникиTwitterLivejournalМой МирLiveinternet
 

 
Показать сообщения:    


Вы не можете начинать темы
Вы не можете отвечать на сообщения
Вы не можете редактировать свои сообщения
Вы не можете удалять свои сообщения
Вы не можете голосовать в опросах
Вы не можете прикреплять файлы к сообщениям
Вы можете скачивать файлы