Loading...
Error

Скачать Эйфория / Euphoria (Лиза Лангсет) [2017, Драма, приключения, WEB-DL] [1080p] [MVO] [iTunes] торрент без регистрации

Статистика раздачи
Размер:  3,25 GB   |    Скачан:  98 раз
Сидов:  1  [  0 KB/s  ]  
 
 
 
Автор Сообщение

leon030982

[] 

Информация о фильме

Название: Эйфория
Оригинальное название: Euphoria
Год выхода: 2017
Жанр: Драма, приключения
Страна: Швеция, Германия
Студия: B-Reel Films, Dancing Camel Films, Dorian Media
Продолжительность: 01:33:57
Перевод: Профессиональный многоголосый | iTunes

Режиссер: Лиза Лангсет

В ролях: Алисия Викандер, Ева Грин, Шарлотта Рэмплинг, Адриан Лестер, Чарльз Дэнс, Марк Стэнли, Тайгер Кирххарц, Август Цирнер, Стеффен Юнг



О фильме: Эмили и Инес совершают путешествие по Европе, которое должно закончиться в «самом прекрасном месте на свете». Именно там Эмили хочет прожить свою «идеальную жизнь» и уйти навсегда из этого мира. Но, поставленная перед фактом, Инес совсем не готова безропотно принять это странное решение и хочет вырваться из этого «клуба самоубийц».

Качество: WEB-DL 1080p
Видео: MPEG-4 AVC, 1920x804, 4567 Kbit/s, 25.000 fps
Формат: MKV
Звук: 48 kHz, AC3, 5.1, 384 Kbps | iTunes | RUS |
General

Unique ID : 46300435762587969728154114618188249177 (0x22D523BAAF51A036FA38FB16EACE3859)

Complete name : C:Video111Euphoria.2017.WEB-DL.1080p.ExKinoRay.mkv

Format : Matroska

Format version : Version 4 / Version 2

File size : 3.25 GiB

Duration : 1 h 33 min

Overall bit rate : 4 953 kb/s

Movie name : Euphoria 2017 from ExKinoRay

Encoded date : UTC 2018-06-05 18:26:39

Writing application : mkvmerge v22.0.0 ('At The End Of The World') 64-bit

Writing library : libebml v1.3.5 + libmatroska v1.4.8

Video

ID : 1

Format : AVC

Format/Info : Advanced Video Codec

Format profile : High@L4

Format settings : CABAC / 5 Ref Frames

Format settings, CABAC : Yes

Format settings, ReFrames : 5 frames

Codec ID : V_MPEG4/ISO/AVC

Duration : 1 h 33 min

Bit rate : 4 567 kb/s

Width : 1 920 pixels

Height : 804 pixels

Display aspect ratio : 2.40:1

Frame rate mode : Constant

Frame rate : 25.000 FPS

Color space : YUV

Chroma subsampling : 4:2:0

Bit depth : 8 bits

Scan type : Progressive

Bits/(Pixel*Frame) : 0.118

Stream size : 3.00 GiB (92%)

Language : English

Default : Yes

Forced : No

Color range : Limited

Color primaries : BT.709

Transfer characteristics : BT.709

Matrix coefficients : BT.709

Audio

ID : 2

Format : AC-3

Format/Info : Audio Coding 3

Codec ID : A_AC3

Duration : 1 h 33 min

Bit rate mode : Constant

Bit rate : 384 kb/s

Channel(s) : 6 channels

Channel positions : Front: L C R, Side: L R, LFE

Sampling rate : 48.0 kHz

Frame rate : 31.250 FPS (1536 SPF)

Bit depth : 16 bits

Compression mode : Lossy

Stream size : 258 MiB (8%)

Title : iTunes

Language : Russian

Service kind : Complete Main

Default : Yes

Forced : Yes

Menu

00:00:00.000 : en:Глава 1

00:08:35.558 : en:Глава 2

00:15:33.998 : en:Глава 3

00:22:11.357 : en:Глава 4

00:27:27.517 : en:Глава 5

00:34:27.197 : en:Глава 6

00:42:14.396 : en:Глава 7

00:50:03.836 : en:Глава 8

00:56:11.276 : en:Глава 9

01:02:28.636 : en:Глава 10

01:09:43.035 : en:Глава 11

01:16:56.875 : en:Глава 12

01:22:50.274 : en:Глава 13
Релиз от: Автор релиза:




Скачать Эйфория.Euphoria.(Лиза.Лангсет).[2017.Драма.приключения.WEB-DL].[1080p].[MVO].[iTunes].torrent без регистрации
Золото ЗОЛОТАЯ РАЗДАЧА! СКАЧАННОЕ НЕ ЗАСЧИТЫВАЕТСЯ! Золото
Дата: Зарегистрирован   [ Тип: внутренний ] Как тут cкачать?
MAGNET ссылка
MAGNET ссылка


Скачать .torrent

17 KB

Статус: проверено DHT
Скачан: торрент - 98 раз, раздача полностью - 171 раз
Размер: 3,25 GB
Оценка:  - (Голосов: 0)
Поблагодарили: 2
Поделиться ссылкой на эту раздачу с друзьями:
В контактеFacebookОдноклассникиTwitterLivejournalМой МирLiveinternet
 

 
Показать сообщения:    


Вы не можете начинать темы
Вы не можете отвечать на сообщения
Вы не можете редактировать свои сообщения
Вы не можете удалять свои сообщения
Вы не можете голосовать в опросах
Вы не можете прикреплять файлы к сообщениям
Вы можете скачивать файлы