Loading...
Error

Скачать Не в себе / Unsane (Стивен Содерберг) [2018, ужасы, триллер, WEB-DL] [720p] [MVO] (HDrezka Studio) торрент без регистрации

Статистика раздачи
Размер:  3,97 GB   |    Скачан:  173 раза
Сидов:  2  [  0 KB/s  ]  
 
 
 
Автор Сообщение

leon030982

[] 

Не в себе / Unsane

Год выпуска: 2018
Страна: США
Жанр: ужасы, триллер
Продолжительность: 01:38:12
Перевод: Профессиональный многоголосый [HDrezka Studio]
Субтитры: отсутствуют

Режиссер: Стивен Содерберг

В ролях:
Джошуа Леонард, Клер Фой, Сара Стайлс, Марк Кадиш, Эми Ирвинг, Колин Вуделл, Мира Лукреция Тейлор, Линда Моз, Зак Черри, Полли МакКи

Описание:

Девушка покидает родной город, чтобы сбежать от проблемного прошлого и найти новую работу. Но когда она не по своей воле оказывается в психиатрическом учреждении, ей приходится столкнуться со своим самым большим страхом. Но реален ли он, или это - просто плод ее воображения? Героине кажется, что никто не верит ей, а власти не могут или не хотят помочь, поэтому она должна в одиночку противостоять своим страхам.



Качество: WEB-DL 720p
Формат: MKV
Видео: 4900 kb/s, 1688x1080
Аудио 1: (AC3, 2 ch, 384 Кбит/с) - MVO
Аудио 2: (AC3, 6 ch, 384 Кбит/с) - ENG
General
Unique ID : 174331696091942232311882668175188399774 (0x8327103967A5095A96649D525E21969E)
Complete name : F:\Unsane.2018.1080p.WEB-DL.Rustorrents.mkv
Format : Matroska
Format version : Version 2
File size : 3.97 GiB
Duration : 1 h 38 min
Overall bit rate : 5 783 kb/s
Encoded date : UTC 2018-06-06 03:49:42
Writing application : mkvmerge v7.8.0 ('River Man') 32bit built on Apr 3 2015 12:11:22
Writing library : libebml v1.3.1 + libmatroska v1.4.2

Video
ID : 1
Format : AVC
Format/Info : Advanced Video Codec
Format profile : High@L4
Format settings : CABAC / 4 Ref Frames
Format settings, CABAC : Yes
Format settings, RefFrames : 4 frames
Codec ID : V_MPEG4/ISO/AVC
Duration : 1 h 38 min
Bit rate : 4 900 kb/s
Width : 1 688 pixels
Height : 1 080 pixels
Display aspect ratio : 16:10
Frame rate mode : Constant
Frame rate : 23.976 (24000/1001) FPS
Color space : YUV
Chroma subsampling : 4:2:0
Bit depth : 8 bits
Scan type : Progressive
Bits/(Pixel*Frame) : 0.112
Stream size : 3.36 GiB (85%)
Language : English
Default : Yes
Forced : No
Color range : Limited
Color primaries : BT.709
Transfer characteristics : BT.709
Matrix coefficients : BT.709

Audio #1
ID : 2
Format : AC-3
Format/Info : Audio Coding 3
Format settings, Endianness : Big
Codec ID : A_AC3
Duration : 1 h 38 min
Bit rate mode : Constant
Bit rate : 384 kb/s
Channel(s) : 2 channels
Channel positions : Front: L R
Sampling rate : 48.0 kHz
Frame rate : 31.250 FPS (1536 SPF)
Bit depth : 16 bits
Compression mode : Lossy
Delay relative to video : -42 ms
Stream size : 270 MiB (7%)
Language : Russian
Service kind : Complete Main
Default : Yes
Forced : Yes

Audio #2
ID : 3
Format : AC-3
Format/Info : Audio Coding 3
Format settings, Endianness : Big
Codec ID : A_AC3
Duration : 1 h 38 min
Bit rate mode : Constant
Bit rate : 384 kb/s
Channel(s) : 6 channels
Channel positions : Front: L C R, Side: L R, LFE
Sampling rate : 48.0 kHz
Frame rate : 31.250 FPS (1536 SPF)
Bit depth : 16 bits
Compression mode : Lossy
Delay relative to video : -42 ms
Stream size : 270 MiB (7%)
Language : English
Service kind : Complete Main
Default : No
Forced : No

Menu
00:00:00.000 : en:1
00:05:41.257 : en:2
00:10:22.913 : en:3
00:14:25.697 : en:4
00:19:27.331 : en:5
00:24:47.234 : en:6
00:29:11.164 : en:7
00:36:36.399 : en:8
00:40:26.087 : en:9
00:45:24.592 : en:10
00:50:15.798 : en:11
00:56:13.280 : en:12
00:59:07.828 : en:13
01:04:45.456 : en:14
01:07:31.037 : en:15
01:15:38.441 : en:16
01:23:26.325 : en:17
01:26:40.644 : en:18
01:30:24.159 : en:19
01:35:09.402 : en:20



Скачать Не.в.себе.Unsane.(Стивен.Содерберг).[2018.ужасы.триллер.WEB-DL].[720p].[MVO].(HDrezka.Studio).torrent без регистрации
Золото ЗОЛОТАЯ РАЗДАЧА! СКАЧАННОЕ НЕ ЗАСЧИТЫВАЕТСЯ! Золото
Дата: Зарегистрирован   [ Тип: внутренний ] Как тут cкачать?
MAGNET ссылка
MAGNET ссылка


Скачать .torrent

20 KB

Статус: проверено DHT
Скачан: торрент - 173 раз, раздача полностью - 185 раз
Размер: 3,97 GB
Оценка:  5 (Голосов: 1)
Поблагодарили: 4
Поделиться ссылкой на эту раздачу с друзьями:
В контактеFacebookОдноклассникиTwitterLivejournalМой МирLiveinternet
 

 

Fhrby

[] 

Содерберг удивляет
 
Показать сообщения:    


Вы не можете начинать темы
Вы не можете отвечать на сообщения
Вы не можете редактировать свои сообщения
Вы не можете удалять свои сообщения
Вы не можете голосовать в опросах
Вы не можете прикреплять файлы к сообщениям
Вы можете скачивать файлы