Loading...
Error

Скачать Страйк / Strike (Серии 01-07 из 07) (Майкл Кейллор, Кирон Хоукс, Чарльз Старридж) [2017-2018, Триллер, драма, криминал, детектив, WEB-DL] [1080p] [MVO] (FocusStudio) торрент без регистрации

Статистика раздачи
Размер:  27,59 GB   |    Скачан:  47 раз
Сидов:  1  [  0 KB/s  ]   Личеров:  1  [  970 KB/s  ]  
 
 
 
Автор Сообщение

leon030982

[] 

Страйк / Strike



Год выпуска: 2017-2018
Страна: Великобритания
Жанр: Триллер, драма, криминал, детектив
Продолжительность: 00:58:00
Перевод: Профессиональный (многоголосый, закадровый) [FocusStudio] *Без цензуры!*

Режиссёр: Майкл Кейллор, Кирон Хоукс, Чарльз Старридж

В ролях: Том Бёрк,Холлидей Грейнджер,Керр Логан,Лео Билл,Мартин Шоу

Описание: «Страйк» — сериал на основе детективных романов, написанных Дж.К. Роулинг под псевдонимом Роберт Гэлбрейт. Корморан Страйк — ветеран афганской войны, ставший частным детективом — работает в небольшом офисе на Датской улице в Лондоне. В расследованиях ему помогает секретарь Робин Эллакотт. Несмотря на физические и душевные травмы, уникальная проницательность и опыт Страйка позволяют ему раскрыть самые запутанные дела, которые полицию ставят в тупик.



Качество: WEB-DL 1080p
Формат: MKV
Видео: 1920x1080 (16:9), 23.976 fps, MPEG-4 AVC ~9000 kbps
Аудио: 48 kHz, AC3, 6 ch, 640 kbps - MVO
Аудио: 48 kHz, AC3, 6 ch, 640 kbps - ENG
General
Unique ID : 252491250622937740387640797465972294691 (0xBDF40BC86DC1ABABBA913FE27FEBC423)
Complete name : E:\Strike.S01.WEB-DL.1080p.FocusStudio\Strike.S01E01.WEB-DL.1080p.FocusStudio.mkv
Format : Matroska
Format version : Version 4 / Version 2
File size : 3.95 GiB
Duration : 59 min 46 s
Overall bit rate mode : Variable
Overall bit rate : 9 470 kb/s
Movie name : Strike 1x01 @ FocusStudio
Encoded date : UTC 2018-06-09 16:58:54
Writing application : mkvmerge v8.1.0 ('Psychedelic Postcard') 64bit
Writing library : libebml v1.3.1 + libmatroska v1.4.2

Video
ID : 1
Format : AVC
Format/Info : Advanced Video Codec
Format profile : High@L4
Format settings : CABAC / 4 Ref Frames
Format settings, CABAC : Yes
Format settings, RefFrames : 4 frames
Codec ID : V_MPEG4/ISO/AVC
Duration : 59 min 46 s
Bit rate mode : Variable
Bit rate : 8 002 kb/s
Maximum bit rate : 15.0 Mb/s
Width : 1 920 pixels
Height : 1 080 pixels
Display aspect ratio : 16:9
Frame rate mode : Constant
Frame rate : 23.976 (24000/1001) FPS
Color space : YUV
Chroma subsampling : 4:2:0
Bit depth : 8 bits
Scan type : Progressive
Bits/(Pixel*Frame) : 0.161
Stream size : 3.34 GiB (84%)
Default : Yes
Forced : No
Color range : Limited
Color primaries : BT.709
Transfer characteristics : BT.709
Matrix coefficients : BT.709

Audio #1
ID : 2
Format : AC-3
Format/Info : Audio Coding 3
Format settings, Endianness : Big
Codec ID : A_AC3
Duration : 59 min 46 s
Bit rate mode : Constant
Bit rate : 640 kb/s
Channel(s) : 6 channels
Channel positions : Front: L C R, Side: L R, LFE
Sampling rate : 48.0 kHz
Frame rate : 31.250 FPS (1536 SPF)
Bit depth : 16 bits
Compression mode : Lossy
Stream size : 274 MiB (7%)
Title : MVO FocusStudio
Language : Russian
Service kind : Complete Main
Default : Yes
Forced : No

Audio #2
ID : 3
Format : AC-3
Format/Info : Audio Coding 3
Format settings, Endianness : Big
Codec ID : A_AC3
Duration : 59 min 46 s
Bit rate mode : Constant
Bit rate : 640 kb/s
Channel(s) : 6 channels
Channel positions : Front: L C R, Side: L R, LFE
Sampling rate : 48.0 kHz
Frame rate : 31.250 FPS (1536 SPF)
Bit depth : 16 bits
Compression mode : Lossy
Stream size : 274 MiB (7%)
Language : English
Service kind : Complete Main
Default : No
Forced : No



Скачать Страйк.Strike.(Серии.01-07.из.07).(Майкл.Кейллор.Кирон.Хоукс.Чарльз.Старридж).[2017-2018.Триллер.драма.криминал.детектив.WEB-DL].[1080p].[MVO].(FocusStudio).torrent без регистрации
Золото ЗОЛОТАЯ РАЗДАЧА! СКАЧАННОЕ НЕ ЗАСЧИТЫВАЕТСЯ! Золото
Дата: Зарегистрирован   [ Тип: внутренний ] Как тут cкачать?
MAGNET ссылка
MAGNET ссылка


Скачать .torrent

139 KB

Статус: проверено DHT
Скачан: торрент - 47 раз, раздача полностью - 4 раз
Размер: 27,59 GB
Оценка:  - (Голосов: 0)
Поблагодарили: 0
Поделиться ссылкой на эту раздачу с друзьями:
В контактеFacebookОдноклассникиTwitterLivejournalМой МирLiveinternet
 

 
Показать сообщения:    


Вы не можете начинать темы
Вы не можете отвечать на сообщения
Вы не можете редактировать свои сообщения
Вы не можете удалять свои сообщения
Вы не можете голосовать в опросах
Вы не можете прикреплять файлы к сообщениям
Вы можете скачивать файлы