Loading...
Error

Скачать Ночные игры / Game Night (Джон Фрэнсис Дейли, Джонатан М. Голдштейн) [2018, Триллер, комедия, криминал, детектив, BDRip][1080p][1080p] [Dub Лицензия] [R.G. GoldenShara] торрент без регистрации

Статистика раздачи
Размер:  4,37 GB   |    Скачан:  149 раз
Сидов:  7  [  0 KB/s  ]  
 
 
 
Автор Сообщение

Magnetto83

[] 


Ночные игры / Game Night


Год выпуска: 2018
Выпущено: США | Aggregate Films, Davis Entertainment, New Line Cinema
Жанр: Триллер, комедия, криминал, детектив
Продолжительность: 01:40:06
Перевод: Профессиональный (полное дублирование) | Blu-ray CEE |
Субтитры: Русские (форс. + полные), английские (Full + SDH)
Навигация по главам: Сохранены оригинальные главы как на Blu-ray

Слоган: «This is not a game»

Режиссер: Джон Фрэнсис Дейли, Джонатан М. Голдштейн

В ролях: Джейсон Бейтмен, Рэйчел МакАдамс, Кайл Чандлер, Шэрон Хорган, Билли Магнуссен, Ламорн Моррис, Кайли Банбери, Джесси Племонс, Майкл С. Холл, Дэнни Хьюстон

Описание: История Макса и Энни, которые вместе с другими парами каждую неделю устраивают так называемые «ночные игры». И вот однажды харизматичный брат Макса Брукс организовывает вечер по разгадыванию «убийственного» квеста с «ряжеными» головорезами и агентами ФБР. Получается, похищение Брукса в тот вечер - это розыгрыш... или нет?



Возраст: 18+ (зрителям, достигшим 18 лет. запрещено для детей)
Рейтинг MPAA: R (лицам до 17 лет обязательно присутствие взрослого)

Качество: BDRip 1080p
Формат: MKV
Видео кодек: H.264
Аудио кодек: AC3
Видео: 1920x800 (2.40:1), 5797 Кбит/с, 23.976 fps
Аудио: Русский Dolby Digital 5.1 (448 Кбит/с)


x264 [info]: frame I:1197 Avg QP:17.88 size:207102
x264 [info]: frame P:28525 Avg QP:20.85 size: 60632
x264 [info]: frame B:114272 Avg QP:23.12 size: 20749
x264 [info]: consecutive B-frames: 1.6% 2.1% 4.2% 11.8% 20.5% 46.9% 8.9% 1.5% 2.6%
x264 [total]: encoded 143994 frames, 1.10 fps, 5792.32 kb/s



General
Complete name : J:\Кино HD\Мои Рипы 1080p\Кино Хиты 2018 1080р\Ночные Игры 2018 Dub Rus BDRip 1080p.mkv
Format : Matroska
Format version : Version 4 / Version 2
File size : 4.37 GiB
Duration : 1h 40mn
Overall bit rate : 6 243 Kbps
Movie name : Ночные Игры 2018 Dub Rus BDRip 1080p By R.G. GoldenShara
Encoded date : UTC 2018-06-14 18:50:36
Writing application : mkvmerge v7.0.0 ('Where We Going') 64bit built on Jun 9 2014 15:16:27
Writing library : libebml v1.3.0 + libmatroska v1.4.1
Attachements : Cover
DURATION : 01:40:05.728000000
NUMBER_OF_FRAMES : 187679
NUMBER_OF_BYTES : 336320768
_STATISTICS_WRITING_APP : mkvmerge v7.0.0 ('Where We Going') 64bit built on Jun 9 2014 15:16:27
_STATISTICS_WRITING_DATE_UTC : 2018-06-14 18:50:36
_STATISTICS_TAGS : BPS DURATION NUMBER_OF_FRAMES NUMBER_OF_BYTES

Video
ID : 1
Format : AVC
Format/Info : Advanced Video Codec
Format profile : High@L4.1
Format settings, CABAC : Yes
Format settings, ReFrames : 5 frames
Codec ID : V_MPEG4/ISO/AVC
Duration : 1h 40mn
Bit rate : 5 797 Kbps
Width : 1 920 pixels
Height : 800 pixels
Display aspect ratio : 2.40:1
Frame rate mode : Constant
Frame rate : 23.976 fps
Color space : YUV
Chroma subsampling : 4:2:0
Bit depth : 8 bits
Scan type : Progressive
Bits/(Pixel*Frame) : 0.157
Stream size : 3.96 GiB (91%)
Title : Ночные Игры 2018 BDRip 1080p By Magnetto 83
Writing library : x264 core 146 r2538 121396c
Encoding settings : cabac=1 / ref=5 / deblock=1:-3:-3 / analyse=0x3:0x113 / me=umh / subme=11 / psy=1 / psy_rd=1.00:0.00 / mixed_ref=1 / me_range=32 / chroma_me=1 / trellis=2 / 8x8dct=1 / cqm=0 / deadzone=21,11 / fast_pskip=0 / chroma_qp_offset=-2 / threads=3 / lookahead_threads=1 / sliced_threads=0 / nr=0 / decimate=1 / interlaced=0 / bluray_compat=0 / constrained_intra=0 / bframes=8 / b_pyramid=2 / b_adapt=2 / b_bias=0 / direct=3 / weightb=1 / open_gop=0 / weightp=2 / keyint=250 / keyint_min=23 / scenecut=40 / intra_refresh=0 / rc=2pass / mbtree=0 / bitrate=5797 / ratetol=1.0 / qcomp=0.60 / qpmin=0 / qpmax=69 / qpstep=4 / cplxblur=20.0 / qblur=0.5 / ip_ratio=1.40 / pb_ratio=1.30 / aq=2:1.00
Language : English
Default : Yes
Forced : No

Audio
ID : 2
Format : AC-3
Format/Info : Audio Coding 3
Mode extension : CM (complete main)
Format settings, Endianness : Big
Codec ID : A_AC3
Duration : 1h 40mn
Bit rate mode : Constant
Bit rate : 448 Kbps
Channel(s) : 6 channels
Channel positions : Front: L C R, Side: L R, LFE
Sampling rate : 48.0 KHz
Compression mode : Lossy
Stream size : 321 MiB (7%)
Title : DD 5.1 @ 448 kbps - Дубляж | Blu-ray CEE |
Language : Russian
Default : Yes
Forced : No

Text #1
ID : 3
Format : UTF-8
Codec ID : S_TEXT/UTF8
Codec ID/Info : UTF-8 Plain Text
Title : Форс.
Language : Russian
Default : Yes
Forced : No

Text #2
ID : 4
Format : UTF-8
Codec ID : S_TEXT/UTF8
Codec ID/Info : UTF-8 Plain Text
Title : Полные
Language : Russian
Default : No
Forced : No

Text #3
ID : 5
Format : UTF-8
Codec ID : S_TEXT/UTF8
Codec ID/Info : UTF-8 Plain Text
Title : Full
Language : English
Default : No
Forced : No

Text #4
ID : 6
Format : UTF-8
Codec ID : S_TEXT/UTF8
Codec ID/Info : UTF-8 Plain Text
Title : SDH
Language : English
Default : No
Forced : No

Menu
00:00:00.000 : en:00:00:00.000
00:10:35.093 : en:00:10:35.093
00:18:37.116 : en:00:18:37.116
00:32:24.860 : en:00:32:24.860
00:42:40.308 : en:00:42:40.308
00:52:27.353 : en:00:52:27.353
01:02:01.301 : en:01:02:01.301
01:11:50.932 : en:01:11:50.932
01:22:36.743 : en:01:22:36.743
01:32:54.903 : en:01:32:54.903







Скачать Ночные.игры.Game.Night.(Джон.Фрэнсис.Дейли.Джонатан.М.Голдштейн).[2018.Триллер.комедия.криминал.детектив.BDRip][1080p][1080p].[Dub.Лицензия].[R.G.GoldenShara].torrent без регистрации
Золото ЗОЛОТАЯ РАЗДАЧА! СКАЧАННОЕ НЕ ЗАСЧИТЫВАЕТСЯ! Золото
Дата: Зарегистрирован   [ Тип: внутренний ] Как тут cкачать?
MAGNET ссылка
MAGNET ссылка


Скачать .torrent

11 KB

Статус: проверено
Скачан: торрент - 149 раз, раздача полностью - 77 раз
Размер: 4,37 GB
Оценка:  5 (Голосов: 6)
Поблагодарили: 11
Поделиться ссылкой на эту раздачу с друзьями:
В контактеFacebookОдноклассникиTwitterLivejournalМой МирLiveinternet
 

 
Показать сообщения:    


Вы не можете начинать темы
Вы не можете отвечать на сообщения
Вы не можете редактировать свои сообщения
Вы не можете удалять свои сообщения
Вы не можете голосовать в опросах
Вы не можете прикреплять файлы к сообщениям
Вы можете скачивать файлы