Loading...
Error

Скачать 12 обезьян / 12 Monkeys (Сезон 04) (Дэвид Гроссман, Майкл Ваксман, Джон Бэдэм) [2018, фантастика, триллер, драма, детектив, приключения, HDTVRip] [MVO] (ColdFilm) торрент без регистрации

Статистика раздачи
Размер:  4,06 GB   |    Скачан:  137 раз
Сидов:  1  [  0 KB/s  ]  
 
 
 
Автор Сообщение

leon030982

[] 


12 обезьян / 12 Monkeys



Год выпуска: 2018
Страна: США
Жанр: фантастика, триллер, драма, детектив, приключения
Продолжительность: 1х~ 00:47:00
Перевод: Любительский (многоголосый) [ColdFilm]

Режиссер: Дэвид Гроссман, Майкл Ваксман, Джон Бэдэм

В ролях: Аарон Стэнфорд, Аманда Шулл, Кирк Асеведо, Ной Бин, Демор Барнс, Рамон Де Окампо, Benjamin Meranda, Алисен Даун, Барбара Зукова,
Эмили Хэмпшир
Описание: Коул является уголовником из постапокалиптического будущего. Его осудили за дерзкое поведение и неподчинение властям. В конце девяностых некий вирус уничтожил почти всю популяцию людей, а те, кому удалось выжить, укрылись под землей. В то время ученые уже изобрели технологию путешествия во времени, и Коул стал «морской свинкой», на которой эту технологию решили испытать. Он должен добыть для изучения образцы вируса из прошлого и за это получит полное прощение за все содеянное.



Качество: HDTVRip
Формат: AVI
Видео кодек: XvID
Аудио кодек: AC3
Видео: XviD, ~ 1100 Кбит/с, 720x400, 25,000 fps
Аудио: 48.0 KHz, AC3, 2 ch, 192 Кбит/с

Добавлена 6-я серия!
General
Complete name : E:\12.Monkeys.S04E01.400p.ColdFilm.avi
Format : AVI
Format/Info : Audio Video Interleave
File size : 378 MiB
Duration : 42 min 43 s
Overall bit rate : 1 237 kb/s
Writing application : VirtualDubMod 1.5.10.2 (build 2540/release)
Writing library : VirtualDubMod build 2540/release

Video
ID : 0
Format : xvid
Codec ID : xvid
Duration : 42 min 43 s
Source duration : 31 min 20 s
Bit rate : 1 035 kb/s
Width : 720 pixels
Height : 400 pixels
Display aspect ratio : 16:9
Frame rate : 25.000 FPS
Bits/(Pixel*Frame) : 0.144
Stream size : 232 MiB (61%)

Audio
ID : 1
Format : AC-3
Format/Info : Audio Coding 3
Format settings, Endianness : Big
Codec ID : 2000
Duration : 42 min 43 s
Source duration : 31 min 20 s
Bit rate mode : Constant
Bit rate : 192 kb/s
Channel(s) : 2 channels
Channel positions : Front: L R
Sampling rate : 48.0 kHz
Frame rate : 31.250 FPS (1536 SPF)
Bit depth : 16 bits
Compression mode : Lossy
Stream size : 43.1 MiB (11%)
Alignment : Split accross interleaves
Interleave, duration : 40 ms (1.00 video frame)
Interleave, preload duratio : 500 ms
Service kind : Complete Main
Внимание! Раздача ведётся путём добавления новых серий; при каждом добавлении создаётся новый торрент. Чтобы начать докачку новой серии, пользователям необходимо сделать следующее:
(1) остановить скачивание,
(2) удалить старый торрент у себя из клиента (старые серии удалять не надо),
(3) скачать новый торрент и запустить его у себя в клиенте вместо старого, при этом указать клиенту путь в старую папку куда и должно происходить скачивание новых серий.
Ваш клиент при этом должен произвести хеширование (проверку) старой папки (если не производит сам - помогите ему сделать это), и будет докачивать только те серии которых у вас ещё нет. Старые серии при этом не удаляются, а продолжают раздаваться!
Eсли вы уже удалили старые серии, то предотвратить повторную закачку старых серий можно, отжав галочку в соответствующих местах при запуске нового торрента. По возможности, желательно не удалять старые серии как можно дольше чтобы релизёр не столько продолжал раздавать старые серии, а смог сконцентрироваться на новых.



Скачать 12.обезьян.12.Monkeys.(Сезон.04).(Дэвид.Гроссман.Майкл.Ваксман.Джон.Бэдэм).[2018.фантастика.триллер.драма.детектив.приключения.HDTVRip].[MVO].(ColdFilm).torrent без регистрации
Золото ЗОЛОТАЯ РАЗДАЧА! СКАЧАННОЕ НЕ ЗАСЧИТЫВАЕТСЯ! Золото
Дата: Зарегистрирован   [ Тип: внутренний ] Как тут cкачать?
MAGNET ссылка
MAGNET ссылка


Скачать .torrent

22 KB

Статус: проверено DHT
Скачан: торрент - 137 раз, раздача полностью - 1 раз
Размер: 4,06 GB
Оценка:  - (Голосов: 0)
Поблагодарили: 0
Поделиться ссылкой на эту раздачу с друзьями:
В контактеFacebookОдноклассникиTwitterLivejournalМой МирLiveinternet
 

 
Показать сообщения:    


Вы не можете начинать темы
Вы не можете отвечать на сообщения
Вы не можете редактировать свои сообщения
Вы не можете удалять свои сообщения
Вы не можете голосовать в опросах
Вы не можете прикреплять файлы к сообщениям
Вы можете скачивать файлы