Loading...
Error

Скачать Лицо со шрамом / Scarface (Ховард Хоукс / Howard Hawks) [1932, боевик, триллер, драма, криминал, WEB-DL 1080p] [MVO] + [Original] Eng + [Sub] Eng торрент без регистрации

Статистика раздачи
Размер:  9,18 GB   |    Скачан:  45 раз
Сидов:  1  [  0 KB/s  ]  
 
 
 
Автор Сообщение

leon030982

[] 

Лицо со шрамом / Scarface

Год выпуска: 1932
Страна: США
Студия: Universal Studios
Жанр: боевик, триллер, драма, криминал
Продолжительность: 01:33:50
Перевод: Профессиональный (многоголосый закадровый) R5
Субтитры: английские (SDH)

Режиссёр: Ховард Хоукс / Howard Hawks

В ролях: Пол Муни, Энн Дворак, Карен Морли, Осгуд Перкинс, С. Генри Гордон, Джордж Рафт, Винс Барнетт, Борис Карлофф, Пернелл Прэтт, Талли Маршалл и др.

Описание: Фильм рассказывает историю о жестком контроле организованной преступности над Чикаго в эпоху «сухого закона». Главный герой — Тони Кармонте, честолюбивый преступник, не знающий жалости. Тони идет к своей цели: он намерен стать криминальным боссом города.



Качество: WEB-DL 1080p (SEV)
Формат: MKV
Видео: x264, 1440x1080 (4:3), 23.976 fps, ~13.7 Mbps avg, 0.367 bit/pixel
Аудио #1: Russian 48.0 KHz, AC3, 2/0 (Front: L R) ch, ~192.00 kbps avg |R5|
Аудио #2: English 48.0 KHz, AAC, 2/0 (Front: L R) ch, ~125.00 kbps avg |Original|
Формат субтитров: softsub (SRT)

Сборка и синхронизация звука - whip93.
General
Unique ID : 286492830829036409624761572255490358719 (0xD788831DDFBD44CF0DFBBC308CABBDBF)
Complete name : D:\Фильмы\Scarface.1932.1080p.WEB-DL.DD2.0.x264.-whip93.mkv
Format : Matroska
Format version : Version 4 / Version 2
File size : 9.18 GiB
Duration : 1 h 33 min
Overall bit rate mode : Variable
Overall bit rate : 14.0 Mb/s
Movie name : Лицо со шрамом | Scarface (1932) - Release by whip93
Encoded date : UTC 2018-06-06 16:45:35
Writing application : mkvmerge v22.0.0 ('At The End Of The World') 64-bit
Writing library : libebml v1.3.5 + libmatroska v1.4.8

Video
ID : 1
Format : AVC
Format/Info : Advanced Video Codec
Format profile : High@L4
Format settings : CABAC / 4 Ref Frames
Format settings, CABAC : Yes
Format settings, ReFrames : 4 frames
Codec ID : V_MPEG4/ISO/AVC
Duration : 1 h 33 min
Bit rate mode : Variable
Bit rate : 13.7 Mb/s
Maximum bit rate : 15.0 Mb/s
Width : 1 440 pixels
Height : 1 080 pixels
Display aspect ratio : 4:3
Frame rate mode : Constant
Frame rate : 23.976 (24000/1001) FPS
Color space : YUV
Chroma subsampling : 4:2:0
Bit depth : 8 bits
Scan type : Progressive
Bits/(Pixel*Frame) : 0.367
Stream size : 8.97 GiB (98%)
Title : SEV's WEB-DL
Writing library : x264 core 148 r2623 d5b2374
Encoding settings : cabac=1 / ref=4 / deblock=1:-1:-1 / analyse=0x3:0x133 / me=umh / subme=9 / psy=1 / psy_rd=1.00:0.15 / mixed_ref=1 / me_range=24 / chroma_me=1 / trellis=2 / 8x8dct=1 / cqm=0 / deadzone=21,11 / fast_pskip=1 / chroma_qp_offset=-3 / threads=34 / lookahead_threads=5 / sliced_threads=0 / nr=150 / decimate=1 / interlaced=0 / bluray_compat=0 / constrained_intra=0 / bframes=8 / b_pyramid=2 / b_adapt=2 / b_bias=0 / direct=3 / weightb=1 / open_gop=0 / weightp=2 / keyint=120 / keyint_min=61 / scenecut=0 / intra_refresh=0 / rc_lookahead=120 / rc=crf / mbtree=1 / crf=18.0 / qcomp=0.60 / qpmin=0 / qpmax=69 / qpstep=4 / vbv_maxrate=15000 / vbv_bufsize=31250 / crf_max=0.0 / nal_hrd=vbr / filler=0 / ip_ratio=1.40 / aq=3:1.00
Language : English
Default : Yes
Forced : No
Color range : Limited
Color primaries : BT.709
Transfer characteristics : BT.709
Matrix coefficients : BT.709

Audio #1
ID : 2
Format : AC-3
Format/Info : Audio Coding 3
Codec ID : A_AC3
Duration : 1 h 33 min
Bit rate mode : Constant
Bit rate : 192 kb/s
Channel(s) : 2 channels
Channel positions : Front: L R
Sampling rate : 48.0 kHz
Frame rate : 31.250 FPS (1536 SPF)
Bit depth : 16 bits
Compression mode : Lossy
Stream size : 129 MiB (1%)
Title : MVO (R5)
Language : Russian
Service kind : Complete Main
Default : Yes
Forced : No

Audio #2
ID : 3
Format : AAC
Format/Info : Advanced Audio Codec
Format profile : LC
Codec ID : A_AAC-2
Duration : 1 h 33 min
Bit rate : 125 kb/s
Channel(s) : 2 channels
Channel positions : Front: L R
Sampling rate : 48.0 kHz
Frame rate : 46.875 FPS (1024 SPF)
Compression mode : Lossy
Stream size : 84.2 MiB (1%)
Title : Original
Language : English
Default : No
Forced : No

Text
ID : 4
Format : UTF-8
Codec ID : S_TEXT/UTF8
Codec ID/Info : UTF-8 Plain Text
Duration : 1 h 30 min
Bit rate : 66 b/s
Count of elements : 1289
Stream size : 44.1 KiB (0%)
Title : Original (SDH)
Language : English
Default : No
Forced : No

Menu
00:00:00.000 : en:Chapter 1
00:00:36.000 : en:Chapter 2
00:02:25.000 : en:Chapter 3
00:05:46.000 : en:Chapter 4
00:06:50.000 : en:Chapter 5
00:09:06.000 : en:Chapter 6
00:13:09.000 : en:Chapter 7
00:17:18.000 : en:Chapter 8
00:18:12.000 : en:Chapter 9
00:22:18.000 : en:Chapter 10
00:25:34.000 : en:Chapter 11
00:27:28.000 : en:Chapter 12
00:29:03.000 : en:Chapter 13
00:30:18.000 : en:Chapter 14
00:32:23.000 : en:Chapter 15
00:36:03.000 : en:Chapter 16
00:40:19.000 : en:Chapter 17
00:41:26.000 : en:Chapter 18
00:44:36.000 : en:Chapter 19
00:46:57.000 : en:Chapter 20
00:49:02.000 : en:Chapter 21
00:50:54.000 : en:Chapter 22
00:52:09.000 : en:Chapter 23
00:54:13.000 : en:Chapter 24
00:56:46.000 : en:Chapter 25
00:58:36.000 : en:Chapter 26
01:03:29.000 : en:Chapter 27
01:06:23.000 : en:Chapter 28
01:10:31.000 : en:Chapter 29
01:14:21.000 : en:Chapter 30
01:16:08.000 : en:Chapter 31
01:17:54.000 : en:Chapter 32
01:19:22.000 : en:Chapter 33
01:22:38.000 : en:Chapter 34
01:25:24.000 : en:Chapter 35
01:33:28.000 : en:Chapter 36



Скачать Лицо.со.шрамом.Scarface.(Ховард.Хоукс.Howard.Hawks).[1932.боевик.триллер.драма.криминал.WEB-DL.1080p].[MVO].+.[Original].Eng.+.[Sub].Eng.torrent без регистрации
Золото ЗОЛОТАЯ РАЗДАЧА! СКАЧАННОЕ НЕ ЗАСЧИТЫВАЕТСЯ! Золото
Дата: Зарегистрирован   [ Тип: внутренний ] Как тут cкачать?
MAGNET ссылка
MAGNET ссылка


Скачать .torrent

46 KB

Статус: проверено DHT
Скачан: торрент - 45 раз, раздача полностью - 1 раз
Размер: 9,18 GB
Оценка:  - (Голосов: 0)
Поблагодарили: 0
Поделиться ссылкой на эту раздачу с друзьями:
В контактеFacebookОдноклассникиTwitterLivejournalМой МирLiveinternet
 

 
Показать сообщения:    


Вы не можете начинать темы
Вы не можете отвечать на сообщения
Вы не можете редактировать свои сообщения
Вы не можете удалять свои сообщения
Вы не можете голосовать в опросах
Вы не можете прикреплять файлы к сообщениям
Вы можете скачивать файлы