Loading...
Error

Скачать Скиф (Рустам Мосафир) [2018, Драма, история, фэнтези, боевик, приключения, BDRip][1080p] [Оригинал Лицензия] [GER Transfer] [R.G. GoldenShara] торрент без регистрации

Статистика раздачи
Размер:  4,36 GB   |    Скачан:  152 раза
Сидов:  5  [  0 KB/s  ]   Личеров:  1  [  0 KB/s  ]  
 
 
 
Автор Сообщение

Magnetto83

[] 


Скиф


Год выпуска: 2018
Выпущено: Россия | Кинокомпания СТВ
Жанр: Драма, история, фэнтези, боевик, приключения
Продолжительность: 01:44:33
Озвучивание: Оригинальное | Лицензия Blu-ray GER |
Перевод: Не требуется
Навигация по главам: Сохранены оригинальные главы как на Blu-ray

Слоган: «Не в богах дело, в людях...»

Режиссер: Рустам Мосафир

В ролях: Алексей Фаддеев, Виталий Кравченко, Александр Кузнецов, Александр Пацевич, Юрий Цурило, Андрей Пермяков, Василиса Измайлова, Алексей Овсянников, Фёдор Рощин, Рустам Мосафир

Описание: Действие фильма происходит во время смены цивилизаций. В Евразии начинается новая эра. Ушли в небытие гордые воины — скифы, их вымирающие потомки превратились в безжалостных наемных убийц, «волков Ареса». Ратнику Лютобору предстоит тяжелое испытание. Втянутый в междоусобные интриги он отправляется в опасный путь ради спасения семьи, а его проводником становится пленный скиф Куница. Они — враги и молятся разным богам, но вынуждены идти вместе. Через дикий степной мир к пристанищу последних скифов, где их ждет почти неминуемая смерть…



Возраст: 16+

Качество: BDRip 1080p
Формат: MKV
Видео кодек: H.264
Аудио кодек: AC3
Видео: 1920x804 (2.40:1), 5340 Кбит/с, 23.976 fps
Аудио: Русский Dolby Digital 5.1 (640 Кбит/с)


x264 [info]: frame I:922 Avg QP:19.51 size:154607
x264 [info]: frame P:39716 Avg QP:22.54 size: 49920
x264 [info]: frame B:109755 Avg QP:24.44 size: 18734
x264 [info]: consecutive B-frames: 5.1% 6.4% 12.3% 24.1% 15.0% 20.6% 8.1% 6.7% 1.8%
x264 [total]: encoded 150393 frames, 0.98 fps, 5332.79 kb/s



General
Complete name : J:\Кино HD\Мои Рипы 1080p Русские\Скиф 2018 Original Rus BDRip 1080p (Ger Transfer).mkv
Format : Matroska
Format version : Version 2
File size : 4.36 GiB
Duration : 1h 44mn
Overall bit rate : 5 975 Kbps
Movie name : Скиф 2018 Original Rus BDRip 1080p By R.G. GoldenShara
Encoded date : UTC 2018-06-11 13:09:03
Writing application : mkvmerge v5.2.0 ('I can't explain') built on Dec 18 2011 18:12:03
Writing library : libebml v1.2.3 + libmatroska v1.3.0
Attachements : Cover

Video
ID : 1
Format : AVC
Format/Info : Advanced Video Codec
Format profile : High@L4.1
Format settings, CABAC : Yes
Format settings, ReFrames : 5 frames
Codec ID : V_MPEG4/ISO/AVC
Duration : 1h 44mn
Bit rate : 5 340 Kbps
Width : 1 920 pixels
Height : 804 pixels
Display aspect ratio : 2.40:1
Frame rate mode : Constant
Frame rate : 23.976 fps
Color space : YUV
Chroma subsampling : 4:2:0
Bit depth : 8 bits
Scan type : Progressive
Bits/(Pixel*Frame) : 0.144
Stream size : 3.81 GiB (87%)
Title : Скиф 2018 BDRip 1080p By Magnetto 83 (Ger Transfer)
Writing library : x264 core 146 r2538 121396c
Encoding settings : cabac=1 / ref=5 / deblock=1:-1:-1 / analyse=0x3:0x113 / me=umh / subme=10 / psy=1 / psy_rd=1.00:0.00 / mixed_ref=1 / me_range=32 / chroma_me=1 / trellis=2 / 8x8dct=1 / cqm=0 / deadzone=21,11 / fast_pskip=0 / chroma_qp_offset=-2 / threads=3 / lookahead_threads=1 / sliced_threads=0 / nr=0 / decimate=1 / interlaced=0 / bluray_compat=0 / constrained_intra=0 / bframes=8 / b_pyramid=2 / b_adapt=2 / b_bias=0 / direct=3 / weightb=1 / open_gop=0 / weightp=2 / keyint=250 / keyint_min=23 / scenecut=40 / intra_refresh=0 / rc=2pass / mbtree=0 / bitrate=5340 / ratetol=1.0 / qcomp=0.60 / qpmin=0 / qpmax=69 / qpstep=4 / cplxblur=20.0 / qblur=0.5 / ip_ratio=1.40 / pb_ratio=1.30 / aq=2:1.00
Language : German
Default : Yes
Forced : No

Audio
ID : 2
Format : AC-3
Format/Info : Audio Coding 3
Mode extension : CM (complete main)
Format settings, Endianness : Big
Codec ID : A_AC3
Duration : 1h 44mn
Bit rate mode : Constant
Bit rate : 640 Kbps
Channel(s) : 6 channels
Channel positions : Front: L C R, Side: L R, LFE
Sampling rate : 48.0 KHz
Compression mode : Lossy
Stream size : 479 MiB (11%)
Title : DD 5.1 @ 640 kbps - Оригинал | Blu-ray GER |
Language : Russian
Default : Yes
Forced : No

Menu
00:00:00.000 : :Chapter 1
00:10:40.556 : :Chapter 2
00:18:16.386 : :Chapter 3
00:29:00.822 : :Chapter 4
00:37:23.491 : :Chapter 5
00:45:32.688 : :Chapter 6
00:53:55.690 : :Chapter 7
01:03:59.335 : :Chapter 8
01:11:56.645 : :Chapter 9
01:22:56.972 : :Chapter 10
01:31:06.127 : :Chapter 11
01:38:28.110 : :Chapter 12
01:44:32.140 : :Chapter 13







Скачать Скиф.(Рустам.Мосафир).[2018.Драма.история.фэнтези.боевик.приключения.BDRip][1080p].[Оригинал.Лицензия].[GER.Transfer].[R.G.GoldenShara].torrent без регистрации
Золото ЗОЛОТАЯ РАЗДАЧА! СКАЧАННОЕ НЕ ЗАСЧИТЫВАЕТСЯ! Золото
Дата: Зарегистрирован   [ Тип: внутренний ] Как тут cкачать?
MAGNET ссылка
MAGNET ссылка


Скачать .torrent

11 KB

Статус: проверено
Скачан: торрент - 152 раз, раздача полностью - 108 раз
Размер: 4,36 GB
Оценка:  5 (Голосов: 4)
Поблагодарили: 15
Поделиться ссылкой на эту раздачу с друзьями:
В контактеFacebookОдноклассникиTwitterLivejournalМой МирLiveinternet
 

 
Показать сообщения:    


Вы не можете начинать темы
Вы не можете отвечать на сообщения
Вы не можете редактировать свои сообщения
Вы не можете удалять свои сообщения
Вы не можете голосовать в опросах
Вы не можете прикреплять файлы к сообщениям
Вы можете скачивать файлы