Loading...
Error

Скачать 12 обезьян / 12 Monkeys (Сезон 04) (Дэвид Гроссман, Майкл Ваксман, Джон Бэдэм) [2018, Фантастика, триллер, драма, детектив, приключения, WEBRip 720p] [MVO] (Jaskier) + [Original] торрент без регистрации

Статистика раздачи
Размер:  10,81 GB   |    Скачан:  107 раз

Полного источника не было: 28 минут

 
 
 
Автор Сообщение

leon030982

[] 

12 обезьян / 12 Monkeys


Год выпуска: 2018
Страна: США
Жанр: Фантастика, триллер, драма, детектив, приключения
Продолжительность: ~ 00:45:00
Перевод: Профессиональный (многоголосый закадровый) | Jaskier

Режиссёр: Дэвид Гроссман, Майкл Ваксман, Джон Бэдэм

В ролях:Аарон Стэнфорд, Аманда Шулл, Кирк Асеведо, Ной Бин, Демор Барнс, Рамон Де Окампо, Бенджамин Меранда, Алисен Даун, Барбара Зукова, Эмили Хэмпши

Описание: Новый фантастический сериал, созданный по мотивам оригинального фильма 1995 года. Коул является уголовником из постапокалиптического будущего. Его осудили за дерзкое поведение и неподчинение властям. В конце девяностых некий вирус уничтожил почти всю популяцию людей, а те, кому удалось выжить, укрылись под землей. В то время ученые уже изобрели технологию путешествия во времени, и Коул стал «морской свинкой», на которой эту технологию решили испытать. Он должен добыть для изучения образцы вируса из прошлого и за это получит полное прощение за все содеянное.



Качество: WEBRip 720p
Формат: MKV
Видео: 1280x720 (16:9) | X264 | ~3112 kbps | 23.976 fps
Аудио 1: AC3, 48,0 КГц, 6 ch, 384 kbps - [RUS]
Аудио 2: AC3, 48,0 КГц, 6 ch, 384 kbps - [ENG]
Переведено и озвучено: студией Jaskier
Общее
Уникальный идентификатор                 : 337547850371761778659076282779978781362 (0xFDF159ECCB77A370B24853758CC952B2)
Полное имя                               : F:\Jaskier\12.Monkeys Season 4 (WEBRip l 720p l Jaskier)\12.Monkeys.S04E01.WEBRip.720p.Jaskier.mkv
Формат                                   : Matroska
Версия формата                           : Version 4 / Version 2
Размер файла                             : 1,17 Гбайт
Продолжительность                        : 43 м. 5 с.
Общий поток                              : 3882 Кбит/сек
Дата кодирования                         : UTC 2018-06-18 17:34:15
Программа кодирования                    : mkvmerge v19.0.0 ('Brave Captain') 64-bit
Библиотека кодирования                   : libebml v1.3.5 + libmatroska v1.4.8

Видео
Идентификатор                            : 1
Формат                                   : AVC
Формат/Информация                        : Advanced Video Codec
Профиль формата                          : [url=/cdn-cgi/l/email-protection" class="__cf_email__" data-cfemail="c48cada3ac8488f7eaf5">[email protected]
Настройки формата                        : CABAC / 5 Ref Frames
Параметр CABAC формата                   : Да
Параметр RefFrames формата               : 5 кадров
Идентификатор кодека                     : V_MPEG4/ISO/AVC
Продолжительность                        : 43 м. 5 с.
Битрейт                                  : 3112 Кбит/сек
Ширина                                   : 1280 пикселей
Высота                                   : 720 пикселей
Соотношение сторон                       : 16:9
Режим частоты кадров                     : Постоянный
Частота кадров                           : 23,976 (24000/1001) кадра/сек
Цветовое пространство                    : YUV
Субдискретизация насыщенности            : 4:2:0
Битовая глубина                          : 8 бит
Тип развёртки                            : Прогрессивная
Бит/(Пиксели*Кадры)                      : 0.141
Размер потока                            : 959 Мбайт (80%)
Default                                  : Да
Forced                                   : Нет
Цветовой диапазон                        : Limited
Основные цвета                           : BT.709
Характеристики трансфера                 : BT.709
Коэффициенты матрицы                     : BT.709

Аудио #1
Идентификатор                            : 2
Формат                                   : AC-3
Формат/Информация                        : Audio Coding 3
Идентификатор кодека                     : A_AC3
Продолжительность                        : 43 м. 5 с.
Вид битрейта                             : Постоянный
Битрейт                                  : 384 Кбит/сек
Каналы                                   : 6 каналов
Расположение каналов                     : Front: L C R, Side: L R, LFE
Частота                                  : 48,0 КГц
Частота кадров                           : 31,250 кадров/сек (1536 SPF)
Битовая глубина                          : 16 бит
Метод сжатия                             : С потерями
Размер потока                            : 118 Мбайт (10%)
Заголовок                                : Jaskier
Язык                                     : Russian
ServiceKind/String                       : Complete Main
Default                                  : Да
Forced                                   : Нет

Аудио #2
Идентификатор                            : 3
Формат                                   : AC-3
Формат/Информация                        : Audio Coding 3
Идентификатор кодека                     : A_AC3
Продолжительность                        : 43 м. 5 с.
Вид битрейта                             : Постоянный
Битрейт                                  : 384 Кбит/сек
Каналы                                   : 6 каналов
Расположение каналов                     : Front: L C R, Side: L R, LFE
Частота                                  : 48,0 КГц
Частота кадров                           : 31,250 кадров/сек (1536 SPF)
Битовая глубина                          : 16 бит
Метод сжатия                             : С потерями
Размер потока                            : 118 Мбайт (10%)
Язык                                     : English
ServiceKind/String                       : Complete Main
Default                                  : Нет
Forced                                   : Нет
Внимание! Раздача ведётся путём добавления новых серий; при каждом добавлении создаётся новый торрент. Чтобы начать докачку новой серии, пользователям необходимо сделать следующее:
(1) остановить скачивание,
(2) удалить старый торрент у себя из клиента (старые серии удалять не надо),
(3) скачать новый торрент и запустить его у себя в клиенте вместо старого, при этом указать клиенту путь в старую папку куда и должно происходить скачивание новых серий.
Ваш клиент при этом должен произвести хеширование (проверку) старой папки (если не производит сам - помогите ему сделать это), и будет докачивать только те серии которых у вас ещё нет. Старые серии при этом не удаляются, а продолжают раздаваться!
Eсли вы уже удалили старые серии, то предотвратить повторную закачку старых серий можно, отжав галочку в соответствующих местах при запуске нового торрента. По возможности, желательно не удалять старые серии как можно дольше чтобы релизёр не столько продолжал раздавать старые серии, а смог сконцентрироваться на новых.



Скачать 12.обезьян.12.Monkeys.(Сезон.04).(Дэвид.Гроссман.Майкл.Ваксман.Джон.Бэдэм).[2018.Фантастика.триллер.драма.детектив.приключения.WEBRip.720p].[MVO].(Jaskier).+.[Original].torrent без регистрации
Золото ЗОЛОТАЯ РАЗДАЧА! СКАЧАННОЕ НЕ ЗАСЧИТЫВАЕТСЯ! Золото
Дата: Зарегистрирован   [ Тип: внутренний ] Как тут cкачать?
MAGNET ссылка
MAGNET ссылка


Скачать .torrent

29 KB

Статус: проверено DHT
Скачан: торрент - 107 раз, раздача полностью - 0 раз
Размер: 10,81 GB
Оценка:  - (Голосов: 0)
Поблагодарили: 0
Поделиться ссылкой на эту раздачу с друзьями:
В контактеFacebookОдноклассникиTwitterLivejournalМой МирLiveinternet
 

 
Показать сообщения:    


Вы не можете начинать темы
Вы не можете отвечать на сообщения
Вы не можете редактировать свои сообщения
Вы не можете удалять свои сообщения
Вы не можете голосовать в опросах
Вы не можете прикреплять файлы к сообщениям
Вы можете скачивать файлы