Loading...
Error

Скачать Операция «Шаровая молния» / Entebbe (Жозе Падилья) [2018, триллер, драма, криминал, WEB-DL] [1080p] [MVO] (HDrezka Studio) торрент без регистрации

Статистика раздачи
Размер:  3,84 GB   |    Скачан:  171 раз
Сидов:  6  [  128 KB/s  ]   Личеров:  1  [  0 KB/s  ]  
 
 
 
Автор Сообщение

leon030982

[] 

Операция «Шаровая молния» / Entebbe


Год выпуска: 2018
Страна: Великобритания, США
Жанр: триллер, драма, криминал
Продолжительность: 01:47:00
Перевод : Профессиональный (многоголосый) [HDrezka Studio]
Субтитры: Английские

Режиссер: Жозе Падилья

В ролях: Розамунд Пайк, Даниэль Брюль, Эдди Марсан, Бен Шнетцер, Нонсо Анози, Марк Иванир, Дени Меноше, Хуан Пабло Раба, Анхель Бунани, Бронтис Ходоровски

Описание: В 1976 году самолет, следовавший из Тель-Авива в Париж, был захвачен террористами и совершил вынужденную посадку в аэропорту Энтеббе в Уганде с целью обмена заложников на осужденных преступников. Дипломатического решения вопроса за 7 дней найти не удалось. Тогда был разработан весьма изобретательный и крайне смелый план спасения...



Файл
Качество : WEB-DL 1080p
Формат видео : MKV
Видео : MPEG-4 AVC, 1920x800, 4564 Kbit/s, 23.976 fps
Звук : 48 kHz, AC3 Dolby Digital, 2 ch, ~192 kbps - MVO
Звук : 48 kHz, AC3 Dolby Digital, 6 ch, ~384 kbps - ENG
General
Unique ID : 191506090034826240765343317683196253985 (0x9012BB38A4B2D6BE960017D7DDD9D721)
Complete name : D:Video111Новая папка7 Days in Entebbe.2018.WEB-DL.1080p.ExKinoRay.mkv
Format : Matroska
Format version : Version 4 / Version 2
File size : 3.84 GiB
Duration : 1 h 47 min
Overall bit rate : 5 142 kb/s
Movie name : 7 Days In Entebbe 2018 from ExKinoRay
Encoded date : UTC 2018-06-18 16:14:09
Writing application : mkvmerge v7.3.0 ('Nouages') 64bit built on Oct 22 2014 18:53:34
Writing library : libebml v1.3.0 + libmatroska v1.4.1

Video
ID : 1
Format : AVC
Format/Info : Advanced Video Codec
Format profile : High@L4
Format settings : CABAC / 5 Ref Frames
Format settings, CABAC : Yes
Format settings, ReFrames : 5 frames
Codec ID : V_MPEG4/ISO/AVC
Duration : 1 h 47 min
Bit rate : 4 564 kb/s
Width : 1 920 pixels
Height : 800 pixels
Display aspect ratio : 2.40:1
Frame rate mode : Constant
Frame rate : 23.976 (24000/1001) FPS
Color space : YUV
Chroma subsampling : 4:2:0
Bit depth : 8 bits
Scan type : Progressive
Bits/(Pixel*Frame) : 0.124
Stream size : 3.41 GiB (89%)
Language : English
Default : Yes
Forced : No
Color range : Limited
Color primaries : BT.709
Transfer characteristics : BT.709
Matrix coefficients : BT.709

Audio #1
ID : 2
Format : AC-3
Format/Info : Audio Coding 3
Codec ID : A_AC3
Duration : 1 h 47 min
Bit rate mode : Constant
Bit rate : 192 kb/s
Channel(s) : 2 channels
Channel positions : Front: L R
Sampling rate : 48.0 kHz
Frame rate : 31.250 FPS (1536 SPF)
Bit depth : 16 bits
Compression mode : Lossy
Stream size : 147 MiB (4%)
Title : MVO [HDRezka]
Language : Russian
Service kind : Complete Main
Default : Yes
Forced : Yes

Audio #2
ID : 3
Format : AC-3
Format/Info : Audio Coding 3
Codec ID : A_AC3
Duration : 1 h 47 min
Bit rate mode : Constant
Bit rate : 384 kb/s
Channel(s) : 6 channels
Channel positions : Front: L C R, Side: L R, LFE
Sampling rate : 48.0 kHz
Frame rate : 31.250 FPS (1536 SPF)
Bit depth : 16 bits
Compression mode : Lossy
Stream size : 294 MiB (7%)
Title : Original
Language : English
Service kind : Complete Main
Default : No
Forced : No

Text
ID : 4
Format : UTF-8
Codec ID : S_TEXT/UTF8
Codec ID/Info : UTF-8 Plain Text
Duration : 1 h 33 min
Bit rate : 48 b/s
Count of elements : 1124
Stream size : 33.5 KiB (0%)
Title : Full
Language : English
Default : No
Forced : No

Menu
00:00:00.000 : en:1
00:02:33.570 : en:2
00:06:18.669 : en:3
00:12:01.261 : en:4
00:19:01.431 : en:5
00:24:12.575 : en:6
00:28:11.604 : en:7
00:32:44.418 : en:8
00:38:11.410 : en:9
00:44:33.542 : en:10
00:49:32.464 : en:11
00:53:07.011 : en:12
00:58:23.701 : en:13
01:04:05.541 : en:14
01:08:08.617 : en:15
01:16:14.977 : en:16
01:21:12.607 : en:17
01:28:58.989 : en:18
01:37:32.835 : en:19
01:39:10.890 : en:20



Скачать Операция.«Шаровая.молния».Entebbe.(Жозе.Падилья).[2018.триллер.драма.криминал.WEB-DL].[1080p].[MVO].(HDrezka.Studio).torrent без регистрации
Золото ЗОЛОТАЯ РАЗДАЧА! СКАЧАННОЕ НЕ ЗАСЧИТЫВАЕТСЯ! Золото
Дата: Зарегистрирован   [ Тип: внутренний ] Как тут cкачать?
MAGNET ссылка
MAGNET ссылка


Скачать .torrent

6 KB

Статус: проверено DHT
Скачан: торрент - 171 раз, раздача полностью - 159 раз
Размер: 3,84 GB
Оценка:  - (Голосов: 0)
Поблагодарили: 4
Поделиться ссылкой на эту раздачу с друзьями:
В контактеFacebookОдноклассникиTwitterLivejournalМой МирLiveinternet
 

 
Показать сообщения:    


Вы не можете начинать темы
Вы не можете отвечать на сообщения
Вы не можете редактировать свои сообщения
Вы не можете удалять свои сообщения
Вы не можете голосовать в опросах
Вы не можете прикреплять файлы к сообщениям
Вы можете скачивать файлы