Loading...
Error

Скачать Рэмпейдж / Rampage (Брэд Пейтон) [2018, Фантастика, боевик, приключения, WEB-DLRip-AVC] 2x[DUB] (Rus, Ukr)+ [Orig] (Eng) + [Sub] (Eng) торрент без регистрации

Статистика раздачи
Размер:  2,32 GB   |    Скачан:  157 раз
Сидов:  3  [  0 KB/s  ]  
 
 
 
Автор Сообщение

leon030982

[] 

Рэмпейдж / Rampage


Информация о фильме

Год выхода: 2018
Жанр: Фантастика, боевик, приключения
Страна: США, New Line Cinema
Продолжительность: 01:47:14
Перевод 2: Дубляж | iTunes
Перевод 2: Украинский (дублированный)
Субтитры: Русские (Forced, Full), английские

Режиссер: Брэд Пейтон

В ролях: Дуэйн Джонсон, Джеффри Дин Морган, Малин Акерман, Джо Манганьелло, Марли Шелтон, Уилл Юн Ли, Наоми Харрис, Джек Куэйд, Джейк Лэси, Бриэнн Хилл и другие

О фильме:

Приматолог Дэвис Окойи предпочитает держаться подальше от людей и дружит с Джорджем, удивительно умным альфа-самцом - гориллой, которого он воспитывал с самого рождения. Но вышедший из-под контроля генетический эксперимент превращает послушную обезьяну в яростного монстра. Более того, вскоре обнаруживается, что существуют и другие модифицированные хищники. Пока свежесозданные чудовища превращают в руины Северную Америку, стирая с лица Земли все, что попадается у них на пути, Окойи вместе с опальным генным инженером пытается изобрести антидот, прорываясь по бесконечному полю боя не только, чтобы предотвратить глобальную катастрофу, но и спасти бесстрашное существо, которое когда-то было его другом.



Релиз от -

Файл
Качество: WEB-DLRip-AVC
Формат: MKV
Видео: MPEG-4 AVC, 1024x426 (2.40:1), 23.976 fps, ~2140 kbps avg, 0.205 bit/pixel
Звук 2: 48 kHz, AC3, 2 ch, ~384 kbps - iTunes
Звук 2: 48 kHz, AC3, 2 ch, ~192 kbps - Ukr DUB
Звук 3: 48 kHz, AC3, 6 ch, ~384 kbps - ENG

Торент обновлен!
General
Unique ID : 236047930961301462225795439361694472511 (0xB1952D87E61C21589959257C2ACD993F)
Complete name : D:\Rampage.2018.Dub.WEB-DLRip.AVC.ExKinoRay.mkv
Format : Matroska
Format version : Version 2
File size : 2.32 GiB
Duration : 1 h 47 min
Overall bit rate : 3 101 kb/s
Movie name : Rampage 2018 from ExKinoRay
Encoded date : UTC 2018-06-26 21:45:02
Writing application : mkvmerge v5.6.0 ('Kenya Kane') built on May 27 2012 16:44:04
Writing library : libebml v1.2.3 + libmatroska v1.3.0
Attachments : 4e87ff96d4bf822f1cfb47c7a79fd1ca.jpg

Video
ID : 1
Format : AVC
Format/Info : Advanced Video Codec
Format profile : High@L4.1
Format settings, CABAC : Yes
Format settings, ReFrames : 11 frames
Codec ID : V_MPEG4/ISO/AVC
Duration : 1 h 47 min
Bit rate : 2 140 kb/s
Width : 1 024 pixels
Height : 426 pixels
Display aspect ratio : 2.40:1
Frame rate mode : Constant
Frame rate : 23.976 (23976/1000) FPS
Color space : YUV
Chroma subsampling : 4:2:0
Bit depth : 8 bits
Scan type : Progressive
Bits/(Pixel*Frame) : 0.205
Stream size : 1.56 GiB (67%)
Writing library : x264 core 152 r2851 ba24899
Encoding settings : cabac=1 / ref=11 / deblock=1:-2:-2 / analyse=0x3:0x113 / me=umh / subme=10 / psy=1 / psy_rd=1.02:0.10 / mixed_ref=1 / me_range=32 / chroma_me=1 / trellis=2 / 8x8dct=1 / cqm=0 / deadzone=21,11 / fast_pskip=0 / chroma_qp_offset=-3 / threads=12 / lookahead_threads=2 / sliced_threads=0 / nr=0 / decimate=0 / interlaced=0 / bluray_compat=0 / constrained_intra=0 / bframes=9 / b_pyramid=2 / b_adapt=2 / b_bias=0 / direct=3 / weightb=1 / open_gop=0 / weightp=2 / keyint=240 / keyint_min=23 / scenecut=40 / intra_refresh=0 / rc_lookahead=40 / rc=2pass / mbtree=0 / bitrate=2140 / ratetol=1.0 / qcomp=0.60 / qpmin=0 / qpmax=51 / qpstep=4 / cplxblur=20.0 / qblur=0.5 / vbv_maxrate=50000 / vbv_bufsize=62500 / nal_hrd=none / filler=0 / ip_ratio=1.30 / pb_ratio=1.20 / aq=2:0.90
Language : English
Default : Yes
Forced : No
Color range : Limited
Color primaries : BT.709
Transfer characteristics : BT.709
Matrix coefficients : BT.709

Audio #1
ID : 2
Format : AC-3
Format/Info : Audio Coding 3
Mode extension : CM (complete main)
Format settings, Endianness : Big
Codec ID : A_AC3
Duration : 1 h 47 min
Bit rate mode : Constant
Bit rate : 384 kb/s
Channel(s) : 2 channels
Channel positions : Front: L R
Sampling rate : 48.0 kHz
Frame rate : 31.250 FPS (1536 spf)
Compression mode : Lossy
Stream size : 295 MiB (12%)
Title : iTunes
Language : Russian
Default : Yes
Forced : No

Audio #2
ID : 3
Format : AC-3
Format/Info : Audio Coding 3
Mode extension : CM (complete main)
Format settings, Endianness : Big
Codec ID : A_AC3
Duration : 1 h 47 min
Bit rate mode : Constant
Bit rate : 192 kb/s
Channel(s) : 2 channels
Channel positions : Front: L R
Sampling rate : 48.0 kHz
Frame rate : 31.250 FPS (1536 spf)
Compression mode : Lossy
Stream size : 147 MiB (6%)
Title : Dub (Hurtom)
Language : Ukrainian
Default : No
Forced : No

Audio #3
ID : 4
Format : AC-3
Format/Info : Audio Coding 3
Mode extension : CM (complete main)
Format settings, Endianness : Big
Codec ID : A_AC3
Duration : 1 h 47 min
Bit rate mode : Constant
Bit rate : 384 kb/s
Channel(s) : 6 channels
Channel positions : Front: L C R, Side: L R, LFE
Sampling rate : 48.0 kHz
Frame rate : 31.250 FPS (1536 spf)
Compression mode : Lossy
Stream size : 295 MiB (12%)
Language : English
Default : No
Forced : No

Text #1
ID : 5
Format : UTF-8
Codec ID : S_TEXT/UTF8
Codec ID/Info : UTF-8 Plain Text
Title : Forced
Language : Russian
Default : Yes
Forced : No

Text #2
ID : 6
Format : UTF-8
Codec ID : S_TEXT/UTF8
Codec ID/Info : UTF-8 Plain Text
Title : Full
Language : Russian
Default : No
Forced : No

Text #3
ID : 7
Format : UTF-8
Codec ID : S_TEXT/UTF8
Codec ID/Info : UTF-8 Plain Text
Language : English
Default : No
Forced : No

Menu
00:00:00.000 : en:1
00:12:58.000 : en:2
00:19:56.000 : en:3
00:29:53.000 : en:4
00:40:35.000 : en:5
00:49:10.000 : en:6
01:02:38.000 : en:7
01:10:37.000 : en:8
01:20:10.000 : en:9
01:29:23.000 : en:10
01:39:42.000 : en:11



Скачать Рэмпейдж.Rampage.(Брэд.Пейтон).[2018.Фантастика.боевик.приключения.WEB-DLRip-AVC].2x[DUB].(Rus.Ukr)+.[Orig].(Eng).+.[Sub].(Eng).torrent без регистрации
Золото ЗОЛОТАЯ РАЗДАЧА! СКАЧАННОЕ НЕ ЗАСЧИТЫВАЕТСЯ! Золото
Дата: Зарегистрирован   [ Тип: внутренний ] Как тут cкачать?
MAGNET ссылка
MAGNET ссылка


Скачать .torrent

12 KB

Статус: проверено DHT
Скачан: торрент - 157 раз, раздача полностью - 53 раз
Размер: 2,32 GB
Оценка:  - (Голосов: 0)
Поблагодарили: 5
Поделиться ссылкой на эту раздачу с друзьями:
В контактеFacebookОдноклассникиTwitterLivejournalМой МирLiveinternet
 

 
Показать сообщения:    


Вы не можете начинать темы
Вы не можете отвечать на сообщения
Вы не можете редактировать свои сообщения
Вы не можете удалять свои сообщения
Вы не можете голосовать в опросах
Вы не можете прикреплять файлы к сообщениям
Вы можете скачивать файлы