Loading...
Error

Скачать Рэмпейдж / Rampage (Брэд Пейтон) [2018, Фантастика, боевик, приключения, WEB-DL 1080p] [Ukr DUB] + [Orig] (Eng) + [Sub] (Eng) торрент без регистрации

Статистика раздачи
Размер:  3,82 GB   |    Скачан:  165 раз
Сидов:  5  [  0 KB/s  ]  
 
 
 
Автор Сообщение

leon030982

[] 

Рэмпейдж / Rampage


Информация о фильме

Год выхода: 2018
Жанр: Фантастика, боевик, приключения
Страна: США, New Line Cinema
Продолжительность: 01:47:14
Перевод: Украинский (дублированный)
Субтитры: английские

Режиссер: Брэд Пейтон

В ролях: Дуэйн Джонсон, Джеффри Дин Морган, Малин Акерман, Джо Манганьелло, Марли Шелтон, Уилл Юн Ли, Наоми Харрис, Джек Куэйд, Джейк Лэси, Бриэнн Хилл и другие

О фильме:

Приматолог Дэвис Окойи предпочитает держаться подальше от людей и дружит с Джорджем, удивительно умным альфа-самцом - гориллой, которого он воспитывал с самого рождения. Но вышедший из-под контроля генетический эксперимент превращает послушную обезьяну в яростного монстра. Более того, вскоре обнаруживается, что существуют и другие модифицированные хищники. Пока свежесозданные чудовища превращают в руины Северную Америку, стирая с лица Земли все, что попадается у них на пути, Окойи вместе с опальным генным инженером пытается изобрести антидот, прорываясь по бесконечному полю боя не только, чтобы предотвратить глобальную катастрофу, но и спасти бесстрашное существо, которое когда-то было его другом.



Файл
Качество: WEB-DL 1080p
Формат: MKV
Видео: AVC, 1920x800, 4525 кб/с
Звук 1: 48 kHz, AC3, 2 ch, ~192 kbps - Ukr DUB
Звук 2: 48 kHz, AC3, 6 ch, ~384 kbps - ENG

Релиз --
General
Unique ID : 200864224676416492510476365466141762839 (0x971D0AE1AD132BDF8479AC3FAD5CA517)
Complete name : F:\Rampage (2018) WEB-DL 1080p [Ukr][Eng][Sub Eng][Hurtom].mkv
Format : Matroska
Format version : Version 4 / Version 2
File size : 3.82 GiB
Duration : 1 h 47 min
Overall bit rate : 5 103 kb/s
Movie name : Rampage (2018) WEB-DL 1080p [Ukr][Eng][Sub Eng][Hurtom]
Encoded date : UTC 2018-06-18 22:19:06
Writing application : mkvmerge v9.8.0 ('Kuglblids') 64bit
Writing library : libebml v1.3.4 + libmatroska v1.4.5
Cover : Yes
Attachments : cover.jpg

Video
ID : 1
Format : AVC
Format/Info : Advanced Video Codec
Format profile : High@L4
Format settings : CABAC / 5 Ref Frames
Format settings, CABAC : Yes
Format settings, RefFrames : 5 frames
Codec ID : V_MPEG4/ISO/AVC
Duration : 1 h 47 min
Bit rate : 4 425 kb/s
Width : 1 920 pixels
Height : 800 pixels
Display aspect ratio : 2.40:1
Frame rate mode : Constant
Frame rate : 23.976 (24000/1001) FPS
Color space : YUV
Chroma subsampling : 4:2:0
Bit depth : 8 bits
Scan type : Progressive
Bits/(Pixel*Frame) : 0.120
Stream size : 3.31 GiB (87%)
Language : English
Default : Yes
Forced : No
Color range : Limited
Color primaries : BT.709
Transfer characteristics : BT.709
Matrix coefficients : BT.709

Audio #1
ID : 2
Format : AC-3
Format/Info : Audio Coding 3
Format settings, Endianness : Big
Codec ID : A_AC3
Duration : 1 h 47 min
Bit rate mode : Constant
Bit rate : 192 kb/s
Channel(s) : 2 channels
Channel positions : Front: L R
Sampling rate : 48.0 kHz
Frame rate : 31.250 FPS (1536 SPF)
Bit depth : 16 bits
Compression mode : Lossy
Delay relative to video : -42 ms
Stream size : 147 MiB (4%)
Language : Ukrainian
Service kind : Complete Main
Default : Yes
Forced : Yes

Audio #2
ID : 3
Format : AC-3
Format/Info : Audio Coding 3
Format settings, Endianness : Big
Codec ID : A_AC3
Duration : 1 h 47 min
Bit rate mode : Constant
Bit rate : 384 kb/s
Channel(s) : 6 channels
Channel positions : Front: L C R, Side: L R, LFE
Sampling rate : 48.0 kHz
Frame rate : 31.250 FPS (1536 SPF)
Bit depth : 16 bits
Compression mode : Lossy
Delay relative to video : -42 ms
Stream size : 295 MiB (8%)
Language : English
Service kind : Complete Main
Default : No
Forced : No

Text
ID : 4
Format : UTF-8
Codec ID : S_TEXT/UTF8
Codec ID/Info : UTF-8 Plain Text
Language : English
Default : No
Forced : No




Скачать Рэмпейдж.Rampage.(Брэд.Пейтон).[2018.Фантастика.боевик.приключения.WEB-DL.1080p].[Ukr.DUB].+.[Orig].(Eng).+.[Sub].(Eng).torrent без регистрации
Золото ЗОЛОТАЯ РАЗДАЧА! СКАЧАННОЕ НЕ ЗАСЧИТЫВАЕТСЯ! Золото
Дата: Зарегистрирован   [ Тип: внутренний ] Как тут cкачать?
MAGNET ссылка
MAGNET ссылка


Скачать .torrent

20 KB

Статус: проверено DHT
Скачан: торрент - 165 раз, раздача полностью - 129 раз
Размер: 3,82 GB
Оценка:  - (Голосов: 0)
Поблагодарили: 4
Поделиться ссылкой на эту раздачу с друзьями:
В контактеFacebookОдноклассникиTwitterLivejournalМой МирLiveinternet
 

 
Показать сообщения:    


Вы не можете начинать темы
Вы не можете отвечать на сообщения
Вы не можете редактировать свои сообщения
Вы не можете удалять свои сообщения
Вы не можете голосовать в опросах
Вы не можете прикреплять файлы к сообщениям
Вы можете скачивать файлы