Loading...
Error

Скачать Капитан Америка / Captain America (Альберт Пьюн / Albert Pyun) [1990, фантастика, боевик, DVDRip-AVC] [Theatrical Cut] [Fullscreen] [VO] (Владимир Летенков / РТР) + 2x[AVO] (Михаил Иванов, Павел Прямостанов) торрент без регистрации

Статистика раздачи
Размер:  2,18 GB   |    Скачан:  59 раз
Сидов:  1  [  0 KB/s  ]  
 
 
 
Автор Сообщение

leon030982

[] 

Капитан Америка / Captain America / Theatrical Cut, Full screen


Год выпуска: 1990
Страна: США, Югославия
Жанр: фантастика, боевик
Продолжительность: 01:36:56
Перевод 1: Студийный (одноголосый закадровый) Владимир Летенков / РТР
Перевод 2: Авторский (одноголосый закадровый) Михаил Иванов
Перевод 3: Авторский (одноголосый закадровый) Павел Прямостанов
Субтитры: нет

Режиссер: Альберт Пьюн / Albert Pyun

В ролях: Мэтт Салинджер, Ронни Кокс, Нед Битти, Дэррен МакГэвин, Майкл Нури, Скотт Полин, Ким Джиллинхэм, Мелинда Диллон, Билл Муми, Франческа Нери

Описание: Итальянские фашисты вели интенсивные исследования в области создания нового типа человека, обладающего сверхъестественными способностями. Первый экземпляр, названный «Красный Череп», в силу ряда причин оказался и последним. Работавшая в этой области доктор Мария Вассели сумела перебраться в США, где продолжила исследования. Вскоре американцы получили и своего суперчеловека. Как и его прототип, он тоже оказался единственным. Многоопытный «Красный Череп», плетущий сети международного заговора, и бесстрашный «Капитан Америка» вступают в смертельный поединок.



Качество видео: DVDRip-AVC (DVD9/dvdbox)
Формат видео: MKV
Видео: 706x480 (4:3) @ 706x540, 23.976 fps, AVC, ~2 740 Kbps, 0.337 bits/pixel
Аудио 1: 48 kHz, AC3 Dolby Digital, 1/0 (С) ch, ~96 kbps Владимир Летенков / РТР
Аудио 2: 48 kHz, AC3 Dolby Digital, 2/0 (L,R) ch, ~192 kbps Михаил Иванов
Аудио 3: 48 kHz, AC3 Dolby Digital, 2/0 (L,R) ch, ~192 kbps Павел Прямостанов
x264 [info]: frame I:1032 Avg QP:18.62 size: 47479
x264 [info]: frame P:29792 Avg QP:21.66 size: 24211
x264 [info]: frame B:108637 Avg QP:23.42 size: 11251General
Unique ID : 187195944115331859634169028444755927570 (0x8CD4A09EDB3A8B409E567E0D8A252212)
Complete name : C:\Users\ALEX\Downloads\Фильмы\Captain America.Full Screen.Theatrical Cut.1990.TRIPLERUS.DVDRip-AVC.x264.AC3.mkv
Format : Matroska
Format version : Version 4 / Version 2
File size : 2.18 GiB
Duration : 1h 36mn
Overall bit rate : 3 223 Kbps
Encoded date : UTC 2016-02-18 16:26:50
Writing application : mkvmerge v8.5.2 ('Crosses') 64bit
Writing library : libebml v1.3.3 + libmatroska v1.4.4

Video
ID : 1
Format : AVC
Format/Info : Advanced Video Codec
Format profile : High@L4.1
Format settings, CABAC : Yes
Format settings, ReFrames : 16 frames
Codec ID : V_MPEG4/ISO/AVC
Duration : 1h 36mn
Bit rate : 2 740 Kbps
Width : 706 pixels
Height : 480 pixels
Display aspect ratio : 4:3
Frame rate mode : Constant
Frame rate : 23.976 (24000/1001) fps
Color space : YUV
Chroma subsampling : 4:2:0
Bit depth : 8 bits
Scan type : Progressive
Bits/(Pixel*Frame) : 0.337
Stream size : 1.86 GiB (85%)
Title : Captain America.Theatrical Cut
Writing library : x264 core 148 r2638 7599210
Encoding settings : cabac=1 / ref=16 / deblock=1:1:1 / analyse=0x3:0x113 / me=umh / subme=11 / psy=1 / psy_rd=1.00:0.15 / mixed_ref=1 / me_range=32 / chroma_me=1 / trellis=2 / 8x8dct=1 / cqm=0 / deadzone=21,11 / fast_pskip=0 / chroma_qp_offset=-3 / threads=6 / lookahead_threads=1 / sliced_threads=0 / nr=0 / decimate=1 / interlaced=0 / bluray_compat=0 / constrained_intra=0 / bframes=16 / b_pyramid=2 / b_adapt=2 / b_bias=0 / direct=3 / weightb=1 / open_gop=0 / weightp=2 / keyint=240 / keyint_min=23 / scenecut=40 / intra_refresh=0 / rc_lookahead=60 / rc=2pass / mbtree=1 / bitrate=2740 / ratetol=1.0 / qcomp=0.60 / qpmin=0 / qpmax=69 / qpstep=4 / cplxblur=20.0 / qblur=0.5 / ip_ratio=1.40 / aq=1:1.00
Default : Yes
Forced : No

Audio #1
ID : 2
Format : AC-3
Format/Info : Audio Coding 3
Mode extension : CM (complete main)
Format settings, Endianness : Big
Codec ID : A_AC3
Duration : 1h 36mn
Bit rate mode : Constant
Bit rate : 96.0 Kbps
Channel(s) : 1 channel
Channel positions : Front: C
Sampling rate : 48.0 KHz
Frame rate : 31.250 fps (1536 spf)
Compression mode : Lossy
Stream size : 66.6 MiB (3%)
Title : VO (Владимир Летенков) / (РТР)
Language : Russian
Default : Yes
Forced : No

Audio #2
ID : 3
Format : AC-3
Format/Info : Audio Coding 3
Mode extension : CM (complete main)
Format settings, Endianness : Big
Codec ID : A_AC3
Duration : 1h 36mn
Bit rate mode : Constant
Bit rate : 192 Kbps
Channel(s) : 2 channels
Channel positions : Front: L R
Sampling rate : 48.0 KHz
Frame rate : 31.250 fps (1536 spf)
Compression mode : Lossy
Stream size : 133 MiB (6%)
Title : AVO (Михаил Иванов)
Language : Russian
Default : No
Forced : No

Audio #3
ID : 4
Format : AC-3
Format/Info : Audio Coding 3
Mode extension : CM (complete main)
Format settings, Endianness : Big
Codec ID : A_AC3
Duration : 1h 36mn
Bit rate mode : Constant
Bit rate : 192 Kbps
Channel(s) : 2 channels
Channel positions : Front: L R
Sampling rate : 48.0 KHz
Frame rate : 31.250 fps (1536 spf)
Compression mode : Lossy
Stream size : 133 MiB (6%)
Title : AVO (Павел Прямостанов)
Language : Russian
Default : No
Forced : No



Скачать Капитан.Америка.Captain.America.(Альберт.Пьюн.Albert.Pyun).[1990.фантастика.боевик.DVDRip-AVC].[Theatrical.Cut].[Fullscreen].[VO].(Владимир.Летенков.РТР).+.2x[AVO].(Михаил.Иванов.Павел.Прямостанов).torrent без регистрации
Золото ЗОЛОТАЯ РАЗДАЧА! СКАЧАННОЕ НЕ ЗАСЧИТЫВАЕТСЯ! Золото
Дата: Зарегистрирован   [ Тип: внутренний ] Как тут cкачать?
MAGNET ссылка
MAGNET ссылка


Скачать .torrent

12 KB

Статус: проверено DHT
Скачан: торрент - 59 раз, раздача полностью - 1 раз
Размер: 2,18 GB
Оценка:  - (Голосов: 0)
Поблагодарили: 0
Поделиться ссылкой на эту раздачу с друзьями:
В контактеFacebookОдноклассникиTwitterLivejournalМой МирLiveinternet
 

 
Показать сообщения:    


Вы не можете начинать темы
Вы не можете отвечать на сообщения
Вы не можете редактировать свои сообщения
Вы не можете удалять свои сообщения
Вы не можете голосовать в опросах
Вы не можете прикреплять файлы к сообщениям
Вы можете скачивать файлы