Loading...
Error

Скачать Сердцеед / Le retour du heros (Лоран Тирар) [2018, Комедия, история, BDRip 1080p] [DUB] [iTunes] торрент без регистрации

Статистика раздачи
Размер:  6,25 GB   |    Скачан:  139 раз
Сидов:  7  [  18 KB/s  ]  
 
 
 
Автор Сообщение

leon030982

[] 

Информация о фильме

Название: Сердцеед
Оригинальное название: Le retour du heros
Год выхода: 2018
Жанр: Комедия, история
Страна: Франция, Бельгия
Перевод: Дублированный | iTunes
Продолжительность: 01:30:22

Режиссер: Лоран Тирар

В ролях: Жан Дюжарден, Мелани Лоран, Ноэми Мерлан, Кристоф Монтенез, Эвелин Бюиль, Кристиан Бюжо, Федор Аткин, Фабьен Галула, Лоран Бато, Жан-Мишель Лами и др.

О фильме: Красавец и ловелас капитан Невиль, отправляясь в Австрию с армией Наполеона, клянется своей возлюбленной ежедневно писать. Но писем нет, и сердце трепетной Полин разбито. Ее сестра Элизабет решает писать от имени Невиля. Но, сочиняя невероятные подвиги и в конце концов похоронив с почестями легендарного героя, она и не предполагает, что однажды вполне живой и далеко не идеальный Невиль вновь появится у них на пороге.



Файл

Качество: BDRip 1080p
Видео: MPEG-4 AVC, 1920x800, 8875 kbps, 23,976 fps
Звук#1: русский, AC3, 6 ch, 48 kHz, 384 kbps | iTunes
Звук#2: французский, AC3, 6 ch, 48 kHz, 640 kbps | оригинал
Субтитры: нет
General

Уникальный идентификатор : 172644945719470084253576689953968397855 (0x81E2350297EF7A3EA060EDE214269E1F)

Полное имя : F:UtorrentLe.Retour.Du.Heros.2018BDRip1080p.mkv

Формат : Matroska

Версия формата : Version 4 / Version 2

Размер файла : 6.25 GiB

Продолжительность : 1 h 30 min

Общий поток : 9 899 kb/s

Дата кодирования : UTC 2018-06-19 11:19:43

Программа кодирования : mkvmerge v9.5.0 ('Quiet Fire') 64bit

Библиотека кодирования : libebml v1.3.4 + libmatroska v1.4.5

Video

Идентификатор : 1

Формат : AVC

Формат/Информация : Advanced Video Codec

Профиль формата : High@L4.1

Настройки формата : CABAC / 5 Ref Frames

Параметр CABAC формата : Yes

Параметр RefFrames формата : 5 frames

Идентификатор кодека : V_MPEG4/ISO/AVC

Продолжительность : 1 h 30 min

Битрейт : 8 875 kb/s

Ширина : 1 920 pixels

Высота : 800 pixels

Соотношение сторон : 2.40:1

Режим частоты кадров : Constant

Частота кадров : 23.976 (24000/1001) FPS

Цветовое пространство : YUV

Субдискретизация насыщенности : 4:2:0

Битовая глубина : 8 bits

Тип развёртки : Progressive

Бит/(Пиксели*Кадры) : 0.241

Размер потока : 5.60 GiB (90%)

Библиотека кодирования : x264 core 155 r2901 7d0ff22

Настройки программы : cabac=1 / ref=5 / deblock=1:0:0 / analyse=0x3:0x113 / me=umh / subme=8 / psy=1 / psy_rd=1.00:0.00 / mixed_ref=1 / me_range=16 / chroma_me=1 / trellis=1 / 8x8dct=1 / cqm=0 / deadzone=21,11 / fast_pskip=1 / chroma_qp_offset=-2 / threads=18 / lookahead_threads=3 / sliced_threads=0 / nr=0 / decimate=1 / interlaced=0 / bluray_compat=0 / constrained_intra=0 / bframes=3 / b_pyramid=2 / b_adapt=2 / b_bias=0 / direct=3 / weightb=1 / open_gop=0 / weightp=2 / keyint=240 / keyint_min=24 / scenecut=40 / intra_refresh=0 / rc_lookahead=50 / rc=2pass / mbtree=1 / bitrate=8875 / ratetol=1.0 / qcomp=0.60 / qpmin=0 / qpmax=69 / qpstep=4 / cplxblur=20.0 / qblur=0.5 / ip_ratio=1.40 / aq=1:1.00

Язык : English

Default : Yes

Forced : No

Audio #1

Идентификатор : 2

Формат : AC-3

Формат/Информация : Audio Coding 3

Идентификатор кодека : A_AC3

Продолжительность : 1 h 30 min

Вид битрейта : Constant

Битрейт : 384 kb/s

Каналы : 6 channels

Расположение каналов : Front: L C R, Side: L R, LFE

Частота : 48.0 kHz

Частота кадров : 31.250 FPS (1536 SPF)

Битовая глубина : 16 bits

Метод сжатия : Lossy

Размер потока : 248 MiB (4%)

Язык : Russian

Default : Yes

Forced : No

Audio #2

Идентификатор : 3

Формат : AC-3

Формат/Информация : Audio Coding 3

Идентификатор кодека : A_AC3

Продолжительность : 1 h 30 min

Вид битрейта : Constant

Битрейт : 640 kb/s

Каналы : 6 channels

Расположение каналов : Front: L C R, Side: L R, LFE

Частота : 48.0 kHz

Частота кадров : 31.250 FPS (1536 SPF)

Битовая глубина : 16 bits

Метод сжатия : Lossy

Размер потока : 414 MiB (6%)

Язык : French

Default : No

Forced : No

Menu

00:00:00.000 : en:00:00:00.000

00:07:07.052 : en:00:07:07.052

00:13:16.754 : en:00:13:16.754

00:20:11.919 : en:00:20:11.919

00:30:44.801 : en:00:30:44.801

00:38:53.248 : en:00:38:53.248

00:45:35.942 : en:00:45:35.942

00:51:48.439 : en:00:51:48.439

00:58:30.549 : en:00:58:30.549

01:07:29.796 : en:01:07:29.796

01:17:00.574 : en:01:17:00.574

01:26:04.034 : en:01:26:04.034



Скачать Сердцеед.Le.retour.du.heros.(Лоран.Тирар).[2018.Комедия.история.BDRip.1080p].[DUB].[iTunes].torrent без регистрации
Золото ЗОЛОТАЯ РАЗДАЧА! СКАЧАННОЕ НЕ ЗАСЧИТЫВАЕТСЯ! Золото
Дата: Зарегистрирован   [ Тип: внутренний ] Как тут cкачать?
MAGNET ссылка
MAGNET ссылка


Скачать .torrent

17 KB

Статус: проверено DHT
Скачан: торрент - 139 раз, раздача полностью - 137 раз
Размер: 6,25 GB
Оценка:  5 (Голосов: 1)
Поблагодарили: 5
Поделиться ссылкой на эту раздачу с друзьями:
В контактеFacebookОдноклассникиTwitterLivejournalМой МирLiveinternet
 

 
Показать сообщения:    


Вы не можете начинать темы
Вы не можете отвечать на сообщения
Вы не можете редактировать свои сообщения
Вы не можете удалять свои сообщения
Вы не можете голосовать в опросах
Вы не можете прикреплять файлы к сообщениям
Вы можете скачивать файлы