Loading...
Error

Скачать Правда или действие / Truth or Dare (Джефф Уодлоу) [2018, Ужасы, триллер, WEB-DL] [1080p] [DUB iTunes ] торрент без регистрации

Статистика раздачи
Размер:  3,47 GB   |    Скачан:  269 раз
Сидов:  4  [  12 KB/s  ]  
 
 
 
Автор Сообщение

URFIH

[] 


Правда или действие / Truth or Dare


Год выпуска: 2018
Выпущено: США, Blumhouse Productions
Жанр: Ужасы, триллер
Продолжительность: 01:40:32
Перевод: Профессиональный (полное дублирование)
Субтитры: Отсутствуют

Режиссер: Джефф Уодлоу

В ролях: Люси Хейл, Тайлер Пози, Вайолетт Бин, Лэндон Либуарон, Нолан Джерард Фанк, Сэм Лернер, София Тейлор Али, Брэйди Смит, Хейден Сзето, Морган Линдхольм

Описание: Обычная игра «Правда или действие» превращается в жестокую гонку со смертью, когда к процессу подключается нечто сверхъестественное. Стоит кому-то из участников соврать или не выполнить положенное действие, его ждет жестокая расправа. Кто в итоге сможет выйти победителем в жестокой игре?



Качество: WEB-DL 1080p
Формат: MKV
Видео: MPEG-4 AVC, 1916x796, 4454kb/s, 23.976fps
Аудио: 384kb/s, 6ch, 48000kHz, AC3 [RUS] | iTunes

Формат : Matroska
Версия формата : Version 4 / Version 2
Размер файла : 3,47 Гбайт
Продолжительность : 1 ч. 40 м.
Общий поток : 4936 Кбит/сек
Название фильма : TRUETH_OR_DARE_2018_EC_WEB_DL_1080p-BLUEBIRD
Дата кодирования : UTC 2018-06-20 18:30:03
Программа кодирования : mkvmerge v6.9.1 ('Blue Panther') 32bit built on Apr 18 2014 18:15:44
Библиотека кодирования : libebml v1.3.0 + libmatroska v1.4.1

Видео
Идентификатор : 1
Формат : AVC
Формат/Информация : Advanced Video Codec
Профиль формата : High@L4
Настройки формата : CABAC / 5 Ref Frames
Параметр CABAC формата : Да
Параметр RefFrames формата : 5 кадров
Идентификатор кодека : V_MPEG4/ISO/AVC
Продолжительность : 1 ч. 40 м.
Битрейт : 4454 Кбит/сек
Ширина : 1916 пикселей
Высота : 796 пикселей
Соотношение сторон : 2,40:1
Режим частоты кадров : Постоянный
Частота кадров : 23,976 кадра/сек
Цветовое пространство : YUV
Субдискретизация насыщенности : 4:2:0
Битовая глубина : 8 бит
Тип развёртки : Прогрессивная
Бит/(Пиксели*Кадры) : 0.122
Размер потока : 3,13 Гбайт (90%)
Заголовок : TRUETH_OR_DARE_2018_EC_WEB_DL_1080p-BLUEBIRD
Язык : English
Default : Да
Forced : Нет
Цветовой диапазон : Limited
Основные цвета : BT.709
Характеристики трансфера : BT.709
Коэффициенты матрицы : BT.709

Аудио
Идентификатор : 2
Формат : AC-3
Формат/Информация : Audio Coding 3
Идентификатор кодека : A_AC3
Продолжительность : 1 ч. 40 м.
Вид битрейта : Постоянный
Битрейт : 384 Кбит/сек
Каналы : 6 каналов
Расположение каналов : Front: L C R, Side: L R, LFE
Частота : 48,0 КГц
Частота кадров : 31,250 кадров/сек (1536 SPF)
Битовая глубина : 16 бит
Метод сжатия : С потерями
Размер потока : 276 Мбайт (8%)
Заголовок : [DUB] DD 5.1 @ 384 kbps (iTunes)
Язык : Russian
Default : Да
Forced : Нет

Меню
00:00:00.000 : en:1
00:02:31.151 : en:2
00:10:49.065 : en:3
00:14:15.396 : en:4
00:20:27.476 : en:5
00:25:16.306 : en:6
00:29:20.717 : en:7
00:34:53.800 : en:8
00:41:22.104 : en:9
00:45:28.934 : en:10
00:48:33.535 : en:11
00:54:42.695 : en:12
00:58:26.418 : en:13
01:05:53.656 : en:14
01:10:04.114 : en:15
01:15:46.956 : en:16
01:21:59.244 : en:17
01:28:26.214 : en:18
01:31:46.998 : en:19
01:37:56.742 : en:20





Скачать Правда.или.действие.Truth.or.Dare.(Джефф.Уодлоу).[2018.Ужасы.триллер.WEB-DL].[1080p].[DUB.iTunes.].torrent без регистрации
Золото ЗОЛОТАЯ РАЗДАЧА! СКАЧАННОЕ НЕ ЗАСЧИТЫВАЕТСЯ! Золото
Дата: Зарегистрирован   [ Тип: внутренний ] Как тут cкачать?
MAGNET ссылка
MAGNET ссылка


Скачать .torrent

18 KB

Статус: проверено DHT
Скачан: торрент - 269 раз, раздача полностью - 255 раз
Размер: 3,47 GB
Оценка:  4,3 (Голосов: 3)
Поблагодарили: 7
Поделиться ссылкой на эту раздачу с друзьями:
В контактеFacebookОдноклассникиTwitterLivejournalМой МирLiveinternet
 

 
Показать сообщения:    


Вы не можете начинать темы
Вы не можете отвечать на сообщения
Вы не можете редактировать свои сообщения
Вы не можете удалять свои сообщения
Вы не можете голосовать в опросах
Вы не можете прикреплять файлы к сообщениям
Вы можете скачивать файлы