Loading...
Error

Скачать Сауна / Sauna (Анти-Юсси Аннила) [2008, ужасы, BDRip] [1080p] [MVO (R5)] [R.G. Goldenshara] торрент без регистрации

Статистика раздачи
Размер:  4,37 GB   |    Скачан:  73 раза
Сидов:  2  [  0 KB/s  ]  
 
 
 
Автор Сообщение

sobmaster

[] 



Сауна
Sauna




Год выпуска: 2017
Страна: Финляндия , Чехия
Выпущено: Bronson Club, Etic Pictures, Yleisradio (YLE)
Слоган: «Смывает все грехи»
Жанр: ужасы

Продолжительность: 01:19:54
Перевод: Профессиональный (многоголосый, закадровый) (R5)
Режиссер: Анти-Юсси Аннила
Сценарий: Ииро Кюттнер
Продюсер: Йессе Фрюкман, Теро Каукомаа, Филип Хейдук
Оператор: Генри Бломберг
Композитор: Пану Аалтио
Художник: Беда Владимир Дворак, Антти Никкинен, Вилле Ваурас
Монтаж: Йоона Лоухивуори
В ролях:


Вилле Виртанен (Eerik), Томми Эронен (Knut), Виктор Клименко (Semenski), Рэйн Толк (Rogosin), Кари Кетонен (Musko), Соня Петяяярви (Poika), Вилхельмиина Вирккунен (Tytär), Тайсто Реймалуото (Isäntä), Исмо Каллио (Kylänvanhin), Кати Оутинен (Eukko), Дик Идман (Roukkula), Иво Кубечка (Munkki), Елена Лееве (Isännän tyttären ääni, озвучка), Елена Спирина (Rogosinin äidin tuutulaulu, озвучка)
Бюджет: €930 679
Зрители: Финляндия 20.7 тыс.
Мировая премьера: 5 сентября 2008
Релиз на DVD: 2 марта 2010, «Топ Трейд»
MPAA: - Лицам до 17 лет обязательно присутствие взрослого

Описание: 1595 год. Окончена 25-летняя русско-шведская война. Два брата Кнут и Эрик работают в комиссии по демаркации границы между Россией и Швецией. Старший брат Кнут, прошедший всю войну, видевший смерть и сам убивший бесчисленное количество людей мучается от сознания своей вины. Младший брат, не видевший ужасов войны, а учившийся в университете, как может пытается помочь ему. В одной из деревень они случайно убивают юную девушку и ее призрак начинает преследовать их. Единственный способ спастись — найти заколдованную сауну, которая по преданию смывает все грехи!


Качество: BDRip 1080p
Контейнер: MKV
Видео: AVC, 1920x816 (2.35:1), 7382 kbps, 25.000 fps, 0.188 bpp
Аудио: русский /; AC3 /; 5.1 /; 48 kHz /; 448 kbps /; 16 bit; ||
Субтитры #1: английские (форсированные)
Субтитры #2: английские (полные)

АНОНСЫ ПОПУЛЯРНЫХ РАЗДАЧ


Код:

General
Unique ID                                : 184947469567017658803769460642930400625 (0x8B2396442CF21C70884902CFD16E9D71)
Complete name                            : E:\Мои рипы\Сауна.2008.BDRip.1080p.MVO.mkv
Format                                   : Matroska
Format version                           : Version 4 / Version 2
File size                                : 4.37 GiB
Duration                                 : 1h 19mn
Overall bit rate                         : 7 829 Kbps
Movie name                               : Sauna.2008.1080p.Bluray.VC1.Remux
Encoded date                             : UTC 2018-06-22 16:20:20
Writing application                      : mkvmerge v6.8.0 ('Theme for Great Cities') 32bit built on Mar  2 2014 21:27:07
Writing library                          : libebml v1.3.0 + libmatroska v1.4.1

Video
ID                                       : 1
Format                                   : AVC
Format/Info                              : Advanced Video Codec
Format profile                           : High@L4.1
Format settings, CABAC                   : Yes
Format settings, ReFrames                : 5 frames
Codec ID                                 : V_MPEG4/ISO/AVC
Duration                                 : 1h 19mn
Bit rate                                 : 7 382 Kbps
Width                                    : 1 920 pixels
Height                                   : 816 pixels
Display aspect ratio                     : 2.35:1
Frame rate mode                          : Constant
Frame rate                               : 25.000 fps
Color space                              : YUV
Chroma subsampling                       : 4:2:0
Bit depth                                : 8 bits
Scan type                                : Progressive
Bits/(Pixel*Frame)                       : 0.188
Stream size                              : 4.03 GiB (92%)
Writing library                          : x264 core 130 r2273 b3065e6
Encoding settings                        : cabac=1 / ref=5 / deblock=1:-3:-3 / analyse=0x3:0x113 / me=umh / subme=11 / psy=1 / psy_rd=1.00:0.15 / mixed_ref=1 / me_range=48 / chroma_me=1 / trellis=2 / 8x8dct=1 / cqm=0 / deadzone=21,11 / fast_pskip=0 / chroma_qp_offset=-4 / threads=6 / lookahead_threads=1 / sliced_threads=0 / nr=0 / decimate=0 / interlaced=0 / bluray_compat=0 / constrained_intra=0 / bframes=8 / b_pyramid=2 / b_adapt=2 / b_bias=0 / direct=2 / weightb=1 / open_gop=0 / weightp=2 / keyint=250 / keyint_min=25 / scenecut=40 / intra_refresh=0 / rc=2pass / mbtree=0 / bitrate=7382 / ratetol=1.0 / qcomp=0.60 / qpmin=0 / qpmax=69 / qpstep=4 / cplxblur=20.0 / qblur=0.5 / ip_ratio=1.40 / pb_ratio=1.30 / aq=2:1.00
Language                                 : Finnish
Default                                  : Yes
Forced                                   : No
Color primaries                          : Generic film
Matrix coefficients                      : YCgCo

Audio
ID                                       : 2
Format                                   : AC-3
Format/Info                              : Audio Coding 3
Mode extension                           : CM (complete main)
Format settings, Endianness              : Big
Codec ID                                 : A_AC3
Duration                                 : 1h 19mn
Bit rate mode                            : Constant
Bit rate                                 : 448 Kbps
Channel(s)                               : 6 channels
Channel positions                        : Front: L C R, Side: L R, LFE
Sampling rate                            : 48.0 KHz
Bit depth                                : 16 bits
Compression mode                         : Lossy
Stream size                              : 256 MiB (6%)
Title                                    : R5
Language                                 : Russian
Default                                  : Yes
Forced                                   : No

Text #1
ID                                       : 3
Format                                   : UTF-8
Codec ID                                 : S_TEXT/UTF8
Codec ID/Info                            : UTF-8 Plain Text
Title                                    : forced
Language                                 : English
Default                                  : Yes
Forced                                   : No

Text #2
ID                                       : 4
Format                                   : UTF-8
Codec ID                                 : S_TEXT/UTF8
Codec ID/Info                            : UTF-8 Plain Text
Language                                 : English
Default                                  : No
Forced                                   : No






Скачать Сауна.Sauna.(Анти-Юсси.Аннила).[2008.ужасы.BDRip].[1080p].[MVO.(R5)].[R.G.Goldenshara].torrent без регистрации
Золото ЗОЛОТАЯ РАЗДАЧА! СКАЧАННОЕ НЕ ЗАСЧИТЫВАЕТСЯ! Золото
Дата: Зарегистрирован   [ Тип: внутренний ] Как тут cкачать?
MAGNET ссылка
MAGNET ссылка


Скачать .torrent

11 KB

Статус: проверено DHT
Скачан: торрент - 73 раз, раздача полностью - 22 раз
Размер: 4,37 GB
Оценка:  5 (Голосов: 3)
Поблагодарили: 4
Поделиться ссылкой на эту раздачу с друзьями:
В контактеFacebookОдноклассникиTwitterLivejournalМой МирLiveinternet
 

 
Показать сообщения:    


Вы не можете начинать темы
Вы не можете отвечать на сообщения
Вы не можете редактировать свои сообщения
Вы не можете удалять свои сообщения
Вы не можете голосовать в опросах
Вы не можете прикреплять файлы к сообщениям
Вы можете скачивать файлы