Loading...
Error

Скачать Семя Дьявола / Devil Seed (Грег А. Сейджер) [2012, ужасы, BDRip] [1080p] [VO (den904)] [R.G. Goldenshara] торрент без регистрации

Статистика раздачи
Размер:  4,37 GB   |    Скачан:  43 раза
Сидов:  1  [  0 KB/s  ]  
 
 
 
Автор Сообщение

sobmaster

[] 



Семя Дьявола
Devil Seed




Год выпуска: 2012
Страна: Канада
Выпущено: Matchbox Pictures Inc., Player Entertainment Group, Imagination Worldwide, Entertainment One
Жанр: ужасы

Продолжительность: 01:37:47
Перевод: Любительский (одноголосый, закадровый) (den904)
Режиссер: Грег А. Сейджер
Сценарий: Джофф Харт, Грег А. Сейджер
Продюсер: Дуайт Кохлан, Гари Элмер, Джофф Харт
Оператор: Гари Элмер
Композитор: Аарон Джилхюс
Художник: Ноэль Саджиант
Монтаж: Грег А. Сейджер
В ролях:


Мишель Аргирис (Alex Froshiber), Шантель Канзанезе (Jessica Martin), Ванесса Брозе (Breanne Whitaker), Кевин Джейк Уокер (Brian Wolski), Уэйн Конрой (Professor Madison), Даниэль Уайт (Possessed Girl 1970), Колин Смит (Young Priest 1970), Дик Вэнс (Cop #1 1970), Луиз Холлингсворт (Old Psychic Woman), Алан Брэнтон (College Professor), Анджелина Мюллер-Лавиктор (Little Girl), Майкл Дж. Уилмот (Father Madison), Дэвид Джеффри (ER Doctor), Фрэнк Мур (Adoption Husband)
Мировая премьера: 9 июля 2012
MPAA: - Лицам до 17 лет обязательно присутствие взрослого

Описание: Окончание летних каникул совпало для трёх студенток с переездом в новый дом. Возвращаясь с клубной вечеринки в честь новоселья, подвыпившие подруги решили шутки ради заглянуть к местной гадалке. Визит закончился невесело — Алекс, одна из девушек, потеряла сознание, а уже на следующий день вокруг неё начала твориться разная чертовщина, в итоге натолкнувшая Алекс на мысль, что она одержима демоном.


Качество: BDRip 1080p
Контейнер: MKV
Видео: AVC, 1920x816 (2.35:1), 5952 kbps, 23.976 fps, 0.158 bpp
Аудио: русский /; AC3 /; 5.1 /; 48 kHz /; 448 kbps /; 16 bit; ||
Субтитры: английские
Навигация по главам: есть

АНОНСЫ ПОПУЛЯРНЫХ РАЗДАЧ


Код:

General
Unique ID                                : 185929791580980944657460412398445281860 (0x8BE0C67B1B2495EFBE70DBA84D284244)
Complete name                            : E:\Мои рипы\Семя дьявола.2012.BDRip.1080p.VO.mkv
Format                                   : Matroska
Format version                           : Version 4 / Version 2
File size                                : 4.37 GiB
Duration                                 : 1h 37mn
Overall bit rate                         : 6 402 Kbps
Movie name                               : The Hurricane Heist 2018 from ExKinoRay
Encoded date                             : UTC 2018-06-26 22:48:03
Writing application                      : mkvmerge v6.8.0 ('Theme for Great Cities') 32bit built on Mar  2 2014 21:27:07
Writing library                          : libebml v1.3.0 + libmatroska v1.4.1

Video
ID                                       : 1
Format                                   : AVC
Format/Info                              : Advanced Video Codec
Format profile                           : High@L4.1
Format settings, CABAC                   : Yes
Format settings, ReFrames                : 5 frames
Codec ID                                 : V_MPEG4/ISO/AVC
Duration                                 : 1h 37mn
Bit rate                                 : 5 952 Kbps
Width                                    : 1 920 pixels
Height                                   : 816 pixels
Display aspect ratio                     : 2.35:1
Frame rate mode                          : Constant
Frame rate                               : 23.976 fps
Color space                              : YUV
Chroma subsampling                       : 4:2:0
Bit depth                                : 8 bits
Scan type                                : Progressive
Bits/(Pixel*Frame)                       : 0.158
Stream size                              : 3.98 GiB (91%)
Writing library                          : x264 core 130 r2273 b3065e6
Encoding settings                        : cabac=1 / ref=5 / deblock=1:-3:-3 / analyse=0x3:0x113 / me=umh / subme=11 / psy=1 / psy_rd=1.00:0.15 / mixed_ref=1 / me_range=48 / chroma_me=1 / trellis=2 / 8x8dct=1 / cqm=0 / deadzone=21,11 / fast_pskip=0 / chroma_qp_offset=-4 / threads=6 / lookahead_threads=1 / sliced_threads=0 / nr=0 / decimate=0 / interlaced=0 / bluray_compat=0 / constrained_intra=0 / bframes=8 / b_pyramid=2 / b_adapt=2 / b_bias=0 / direct=2 / weightb=1 / open_gop=0 / weightp=2 / keyint=250 / keyint_min=23 / scenecut=40 / intra_refresh=0 / rc=2pass / mbtree=0 / bitrate=5952 / ratetol=1.0 / qcomp=0.60 / qpmin=0 / qpmax=69 / qpstep=4 / cplxblur=20.0 / qblur=0.5 / ip_ratio=1.40 / pb_ratio=1.30 / aq=2:1.00
Language                                 : English
Default                                  : Yes
Forced                                   : No
Color primaries                          : Generic film
Matrix coefficients                      : YCgCo

Audio
ID                                       : 2
Format                                   : AC-3
Format/Info                              : Audio Coding 3
Mode extension                           : CM (complete main)
Format settings, Endianness              : Big
Codec ID                                 : A_AC3
Duration                                 : 1h 37mn
Bit rate mode                            : Constant
Bit rate                                 : 448 Kbps
Channel(s)                               : 6 channels
Channel positions                        : Front: L C R, Side: L R, LFE
Sampling rate                            : 48.0 KHz
Bit depth                                : 16 bits
Compression mode                         : Lossy
Stream size                              : 313 MiB (7%)
Title                                    : VO den904
Language                                 : Russian
Default                                  : Yes
Forced                                   : No

Text
ID                                       : 3
Format                                   : UTF-8
Codec ID                                 : S_TEXT/UTF8
Codec ID/Info                            : UTF-8 Plain Text
Language                                 : English
Default                                  : No
Forced                                   : No

Menu
00:00:00.000                             : en:Chapter 1
00:02:39.617                             : en:Chapter 2
00:10:01.183                             : en:Chapter 3
00:19:58.780                             : en:Chapter 4
00:30:35.250                             : en:Chapter 5
00:37:06.807                             : en:Chapter 6
00:45:42.906                             : en:Chapter 7
00:53:19.696                             : en:Chapter 8
01:04:00.336                             : en:Chapter 9
01:14:11.822                             : en:Chapter 10
01:21:34.097                             : en:Chapter 11
01:33:56.005                             : en:Chapter 12






Скачать Семя.Дьявола.Devil.Seed.(Грег.А.Сейджер).[2012.ужасы.BDRip].[1080p].[VO.(den904)].[R.G.Goldenshara].torrent без регистрации
Золото ЗОЛОТАЯ РАЗДАЧА! СКАЧАННОЕ НЕ ЗАСЧИТЫВАЕТСЯ! Золото
Дата: Зарегистрирован   [ Тип: внутренний ] Как тут cкачать?
MAGNET ссылка
MAGNET ссылка


Скачать .torrent

11 KB

Статус: проверено DHT
Скачан: торрент - 43 раз, раздача полностью - 5 раз
Размер: 4,37 GB
Оценка:  5 (Голосов: 2)
Поблагодарили: 3
Поделиться ссылкой на эту раздачу с друзьями:
В контактеFacebookОдноклассникиTwitterLivejournalМой МирLiveinternet
 

 
Показать сообщения:    


Вы не можете начинать темы
Вы не можете отвечать на сообщения
Вы не можете редактировать свои сообщения
Вы не можете удалять свои сообщения
Вы не можете голосовать в опросах
Вы не можете прикреплять файлы к сообщениям
Вы можете скачивать файлы