Loading...
Error

Скачать Близнецы / Gemini (Аарон Кац) [2017, Триллер, детектив, BDRip 1080p] [MVO] (HDRezka Studio) торрент без регистрации

Статистика раздачи
Размер:  7,39 GB   |    Скачан:  74 раза
Сидов:  1  [  0 KB/s  ]  
 
 
 
Автор Сообщение

leon030982

[] 

Информация о фильме

Название: Близнецы

Оригинальное название: Gemini

Год выхода: 2017
Жанр: Триллер, детектив
Страна: США
Студия: Film Science, PASTEL, Rough House Pictures
Продолжительность: 01:33:04
Перевод: Профессиональный многоголосый | HDRezka Studio

Режиссер: Аарон Кац

В ролях: Лола Кёрк, Зои Кравиц, Джон Чо, Грета Ли, Рики Лейк, Мишель Форбс, Нельсон Франклин, Рив Карни, Джессика Паркер Кеннеди, Джеймс Рэнсон и другие



О фильме: Чудовищное преступление ставит под угрозу и без того сложные отношения между упорным личным ассистентом и ее боссом — голливудской старлеткой.

Качество: BDRip 1080p
Видео: MPEG-4 AVC, 1920x800, 9668 Kbit/s, 23.976 fps
Звук:
Аудио #01: 48 kHz, AC3, 2.0, 192 Kbps | HDRezka Studio | RUS |
Аудио #02: 48 kHz, DTS, 5.1, 1510 Kbps | Оригинал | ENG |

Субтитры: Английские

General

Unique ID : 228362956615424315614394883324303636909 (0xABCD1B0ACB1F2B40876E46B5F98FF9AD)

Complete name : E:VideoGemini.2017.BDRip.1080p.ExKinoRay.mkv

Format : Matroska

Format version : Version 4 / Version 2

File size : 7.39 GiB

Duration : 1 h 33 min

Overall bit rate : 11.4 Mb/s

Movie name : Gemini 2017 from ExKinoRay

Encoded date : UTC 2018-06-30 01:52:17

Writing application : mkvmerge v7.3.0 ('Nouages') 64bit built on Oct 22 2014 18:53:34

Writing library : libebml v1.3.0 + libmatroska v1.4.1

Video

ID : 1

Format : AVC

Format/Info : Advanced Video Codec

Format profile : High@L4.1

Format settings : CABAC / 5 Ref Frames

Format settings, CABAC : Yes

Format settings, ReFrames : 5 frames

Codec ID : V_MPEG4/ISO/AVC

Duration : 1 h 33 min

Bit rate : 9 668 kb/s

Width : 1 920 pixels

Height : 800 pixels

Display aspect ratio : 2.40:1

Frame rate mode : Constant

Frame rate : 23.976 (24000/1001) FPS

Color space : YUV

Chroma subsampling : 4:2:0

Bit depth : 8 bits

Scan type : Progressive

Bits/(Pixel*Frame) : 0.263

Stream size : 6.29 GiB (85%)

Writing library : x264 core 142 r2431+42 c69a006 tMod [8-bit@4:2:0 X86_64]

Encoding settings : cabac=1 / ref=5 / deblock=1:-3:-3 / analyse=0x3:0x113 / me=umh / subme=10 / psy=1 / fade_compensate=0.00 / psy_rd=1.00:0.05 / mixed_ref=1 / me_range=48 / chroma_me=1 / trellis=2 / 8x8dct=1 / cqm=0 / deadzone=21,11 / fast_pskip=0 / chroma_qp_offset=-2 / threads=48 / lookahead_threads=6 / sliced_threads=0 / nr=0 / decimate=1 / interlaced=0 / bluray_compat=0 / constrained_intra=0 / fgo=0 / bframes=8 / b_pyramid=2 / b_adapt=2 / b_bias=0 / direct=3 / weightb=1 / open_gop=0 / weightp=2 / keyint=250 / keyint_min=23 / scenecut=40 / intra_refresh=0 / rc_lookahead=40 / rc=crf / mbtree=0 / crf=18.6000 / qcomp=0.60 / qpmin=0:0:0 / qpmax=69:69:69 / qpstep=4 / vbv_maxrate=40000 / vbv_bufsize=30000 / crf_max=0.0 / nal_hrd=none / filler=0 / ip_ratio=1.40 / pb_ratio=1.30 / aq=3:0.80 / aq-sensitivity=10.00 / aq-factor=1.00:1.00:1.00 / aq2=0 / aq3=0

Language : English

Default : Yes

Forced : No

Color range : Limited

Matrix coefficients : BT.709

Audio #1

ID : 2

Format : AC-3

Format/Info : Audio Coding 3

Codec ID : A_AC3

Duration : 1 h 33 min

Bit rate mode : Constant

Bit rate : 192 kb/s

Channel(s) : 2 channels

Channel positions : Front: L R

Sampling rate : 48.0 kHz

Frame rate : 31.250 FPS (1536 SPF)

Bit depth : 16 bits

Compression mode : Lossy

Stream size : 128 MiB (2%)

Title : MVO [HDRezka Studio]

Language : Russian

Service kind : Complete Main

Default : Yes

Forced : Yes

Audio #2

ID : 3

Format : DTS

Format/Info : Digital Theater Systems

Codec ID : A_DTS

Duration : 1 h 33 min

Bit rate mode : Constant

Bit rate : 1 509 kb/s

Channel(s) : 6 channels

Channel positions : Front: L C R, Side: L R, LFE

Sampling rate : 48.0 kHz

Frame rate : 93.750 FPS (512 SPF)

Bit depth : 24 bits

Compression mode : Lossy

Stream size : 1 004 MiB (13%)

Title : Original

Language : English

Default : No

Forced : No

Text

ID : 4

Format : UTF-8

Codec ID : S_TEXT/UTF8

Codec ID/Info : UTF-8 Plain Text

Duration : 1 h 27 min

Bit rate : 46 b/s

Count of elements : 1097

Stream size : 30.0 KiB (0%)

Title : Original

Language : English

Default : No

Forced : No

Menu

00:00:00.000 : en:00:00:00.000

00:10:31.214 : en:00:10:31.214

00:23:01.589 : en:00:23:01.589

00:31:54.037 : en:00:31:54.037

00:54:57.461 : en:00:54:57.461

01:03:23.133 : en:01:03:23.133

01:16:47.019 : en:01:16:47.019

01:28:15.123 : en:01:28:15.123
Релиз от: Автор релиза:




Скачать Близнецы.Gemini.(Аарон.Кац).[2017.Триллер.детектив.BDRip.1080p].[MVO].(HDRezka.Studio).torrent без регистрации
Золото ЗОЛОТАЯ РАЗДАЧА! СКАЧАННОЕ НЕ ЗАСЧИТЫВАЕТСЯ! Золото
Дата: Зарегистрирован   [ Тип: внутренний ] Как тут cкачать?
MAGNET ссылка
MAGNET ссылка


Скачать .torrent

11 KB

Статус: проверено DHT
Скачан: торрент - 74 раз, раздача полностью - 23 раз
Размер: 7,39 GB
Оценка:  - (Голосов: 0)
Поблагодарили: 3
Поделиться ссылкой на эту раздачу с друзьями:
В контактеFacebookОдноклассникиTwitterLivejournalМой МирLiveinternet
 

 
Показать сообщения:    


Вы не можете начинать темы
Вы не можете отвечать на сообщения
Вы не можете редактировать свои сообщения
Вы не можете удалять свои сообщения
Вы не можете голосовать в опросах
Вы не можете прикреплять файлы к сообщениям
Вы можете скачивать файлы