Loading...
Error

Скачать Йеллоустоун / Yellowstone / Сезон: 1 / Серии: 1-2 из 10 (Тейлор Шеридан) [2018, Драма, вестерн, WEB-DLRip] [MVO] (LostFilm) + [Original] торрент без регистрации

Статистика раздачи
Размер:  1,7 GB   |    Скачан:  58 раз
Сидов:  1  [  0 KB/s  ]  
 
 
 
Автор Сообщение

leon030982

[] 

Йеллоустоун / Yellowstone
Год выпуска: 2018
Страна: США
Жанр: Драма, вестерн
Продолжительность: 01:32:00
Перевод: Профессиональный (многоголосый закадровый) LostFilm

Режиссёр: Тейлор Шеридан

В ролях: Кевин Костнер, Брекен Меррилл, Дэйв Эннэйбл, Келли Райлли, Коул Хаузер, Келси Эсбиль, Уэс Бентли, Джил Бирмингем, Йен Боэн, Люк Граймс и др.

Описание: Йеллоустон — первый в мире национальный парк, одно из самих посещаемых мест в США. Но здесь, на границе цивилизации, происходит много такого, чего не видят туристы, что не освещается средствами массовой информации. Семья Даттон, главой которой является Джон Даттон, владеет огромным ранчо, сопредельным с территорией парка. На их землю претендует и сам парк, и индейская резервация, и жадные застройщики.



Качество: WEB-DLRip
Формат: AVI
Видео: 720x360, 23.976 fps, XviD build 67, 1395 Kbps, 0.225 bit/pixel
Аудио 1: MP3, 48 kHz, 2 ch, 128 kbps, CBR - Rus
Аудио 2: MP3, 48 kHz, 2 ch, 128 kbps, CBR - Eng
Субтитры: Отсутствуют
Rip by DriverV / NNM-Club

"Чистый" кадр. Вступительная заставка и логотип LostFilm отсутствуют.
General
Complete name : Downloads\Йеллоустоун (сезон 1) Yellowstone (2018) WEB-DLRip - LostFilm
Format : AVI
Format/Info : Audio Video Interleave
File size : 1.08 GiB
Duration : 1h 32mn
Overall bit rate : 1 665 Kbps
Writing application : VirtualDubModRus 1.5.10.2 (build 2542/release)
Writing library : VirtualDubMod build 2542/release
Video #0
ID : 0
Format : MPEG-4 Visual
Format profile : Advanced Simple@L5
Format settings, BVOP : 2
Format settings, QPel : No
Format settings, GMC : No warppoints
Format settings, Matrix : Default (H.263)
Codec ID : XVID
Codec ID/Hint : XviD
Duration : 1h 32mn
Bit rate : 1 395 Kbps
Width : 720 pixels
Height : 360 pixels
Display aspect ratio : 2.000
Frame rate : 23.976 fps
Color space : YUV
Chroma subsampling : 4:2:0
Bit depth : 8 bits
Scan type : Progressive
Compression mode : Lossy
Bits/(Pixel*Frame) : 0.225
Stream size : 925 MiB (84%)
Writing library : XviD 67
Audio #1
ID : 1
Format : MPEG Audio
Format version : Version 1
Format profile : Layer 3
Mode : Joint stereo
Mode extension : MS Stereo
Codec ID : 55
Codec ID/Hint : MP3
Duration : 1h 32mn
Bit rate mode : Constant
Bit rate : 128 Kbps
Channel(s) : 2 channels
Sampling rate : 48.0 KHz
Compression mode : Lossy
Stream size : 84.9 MiB (8%)
Alignment : Aligned on interleaves
Interleave, duration : 42 ms (1.00 video frame)
Interleave, preload duration : 504 ms
Audio #2
ID : 2
Format : MPEG Audio
Format version : Version 1
Format profile : Layer 3
Mode : Joint stereo
Mode extension : MS Stereo
Codec ID : 55
Codec ID/Hint : MP3
Duration : 1h 32mn
Bit rate mode : Constant
Bit rate : 128 Kbps
Channel(s) : 2 channels
Sampling rate : 48.0 KHz
Compression mode : Lossy
Stream size : 84.9 MiB (8%)
Alignment : Aligned on interleaves
Interleave, duration : 42 ms (1.00 video frame)
Interleave, preload duration : 504 ms
(1) остановить скачивание,
(2) удалить старый торрент у себя из клиента (старые серии удалять не надо),
(3) скачать новый торрент и запустить его у себя в клиенте вместо старого, при этом указать клиенту путь в старую папку куда и должно происходить скачивание новых серий.
Ваш клиент при этом должен произвести хеширование (проверку) старой папки (если не производит сам - помогите ему сделать это), и будет докачивать только те серии которых у вас ещё нет. Старые серии при этом не удаляются, а продолжают раздаваться!
Eсли вы уже удалили старые серии, то предотвратить повторную закачку старых серий можно, отжав галочку в соответсвующих местах при запуске нового торрента. По возможности, желательно не удалять старые серии как можно дольше чтобы релизёр не столько продолжал раздавать старые серии, а смог сконцентрироваться на новых.



Скачать Йеллоустоун.Yellowstone.Сезон.1.Серии.1-2.из.10.(Тейлор.Шеридан).[2018.Драма.вестерн.WEB-DLRip].[MVO].(LostFilm).+.[Original].torrent без регистрации
Золото ЗОЛОТАЯ РАЗДАЧА! СКАЧАННОЕ НЕ ЗАСЧИТЫВАЕТСЯ! Золото
Дата: Зарегистрирован   [ Тип: внутренний ] Как тут cкачать?
MAGNET ссылка
MAGNET ссылка


Скачать .torrent

18 KB

Статус: проверено DHT
Скачан: торрент - 58 раз, раздача полностью - 9 раз
Размер: 1,7 GB
Оценка:  - (Голосов: 0)
Поблагодарили: 0
Поделиться ссылкой на эту раздачу с друзьями:
В контактеFacebookОдноклассникиTwitterLivejournalМой МирLiveinternet
 

 
Показать сообщения:    


Вы не можете начинать темы
Вы не можете отвечать на сообщения
Вы не можете редактировать свои сообщения
Вы не можете удалять свои сообщения
Вы не можете голосовать в опросах
Вы не можете прикреплять файлы к сообщениям
Вы можете скачивать файлы