Loading...
Error

Скачать Страна призраков / Incident in a Ghost Land (Паскаль Ложье) [2018, ужасы, BDRip] [1080p] [Dub] [Лицензия (Blu-ray RUS)] [R.G. Goldenshara] торрент без регистрации

Статистика раздачи
Размер:  4,37 GB   |    Скачан:  127 раз
Сидов:  3  [  712 KB/s  ]   Личеров:  1  [  747 KB/s  ]  
 
 
 
Автор Сообщение

sobmaster

[] 



Страна призраков
Incident in a Ghost Land




Год выпуска: 2018
Страна: Франция , Канада
Выпущено: Inferno Pictures Inc.
Жанр: ужасы

Продолжительность: 01:31:13
Перевод: Профессиональный (полное дублирование) (Blu-ray RUS)
Режиссер: Паскаль Ложье
Сценарий: Паскаль Ложье
Продюсер: Йен Димерман, Скотт Кеннеди, Жан-Шарль Леви
Оператор: Дэнни Новак
Композитор: Джорджес Боукофф, Тодд Брайнтон, Энтони Дамарио
Художник: Гордон Уидлинг, Бренда Шендер, Сара МакКадден
Монтаж: Дев Сингх
В ролях:


Кристал Рид (Adult Beth), Милен Фармер (Pauline), Анастасия Филлипс (Adult Vera), Эмилия Джонс (Young Beth), Тэйлор Хиксон (Young Vera), Кевин Пауэр (Candy Truck Woman), Роб Арчер (Fat Man), Мариам Бернштейн (Janet), Алисия Джонстон (Cooper), Эрнесто Гриффит (Sanford), Адам Хертиг (Beth's Husband), Шэрон Байер (Eve), Тони Брэга (Beth's Limo Driver), Пол Тайтли (Lovecraft), Гордон Тэннер (Elegant Man)
Роли дублировали: Екатерина Буцкая (Adult Beth; Young Beth), Алена Узлюк (Pauline), Алиса Гурьева (Young Vera)
Сборы в России: $256 779
Зрители: Россия 63.1 тыс.
Мировая премьера: 3 февраля 2018
Премьера (РФ): 15 марта 2018, «Каскад фильм»
Релиз на DVD: 28 мая 2018, «НД Плэй»
Релиз на Blu-ray: 28 мая 2018, «НД Плэй»
MPAA: - Лицам до 17 лет обязательно присутствие взрослого

Описание: Бэт возвращается в родные места, где много лет назад с её семьёй произошла страшная трагедия. В старом особняке её ждут мать и сестра, помешанная на призраках, чья одержимость злыми духами — не что иное, как отголосок ужасного инцидента, превратившего жизнь в параноидальный кошмар. В доме начинают происходить странные события, объяснить которые Бэт не в силах…


Качество: BDRip 1080p
Контейнер: MKV
Видео: AVC, 1920x804 (2.40:1), 6412 kbps, 24.000 fps, 0.173 bpp
Аудио: русский /; AC3 /; 5.1 /; 48 kHz /; 448 kbps /; 16 bit; ||
Субтитры #1: русские (Blu-ray RUS)
Субтитры #2: английские (Full)
Субтитры #3: английские (SDH)
Навигация по главам: есть

АНОНСЫ ПОПУЛЯРНЫХ РАЗДАЧ

  • Паскаль Ложье ранее уже работал с Милен Фармер. Режиссер снял для певицы в 2015 году музыкальный клип на песню City Of Love.
  • Во время съемок сцены, в которой актриса Тэйлор Хиксон должна была бить кулаками по стеклянной двери, произошел несчастный случай. Режиссер Паскаль Ложье просил актрису бить как можно сильнее, уверив ее, что это безопасно. Но стекло разбилось и упало на актрису. В результате инцидента Хиксон получила обширный порез левой стороны лица и была доставлена в больницу, где ей наложили около 70 швов. После того как съемки завершились, Тейлор Хиксон подала в суд иск к кинокомпании Incident Productions. По иронии, постер фильма представляет собой изображение разбитого и разрезанного лица молодой женщины.
  • Кристал Рид, исполнившая роль взрослой Бет Келлер, очаровала режиссёра Паскаля Ложье благодаря видео, которое её фанат запостил на Youtube.

Код:

General
Unique ID                   : 202577482719755300014182575523866978684 (0x9867010654C9915BB84A7844B2BDA97C)
Complete name               : E:\Мои рипы\Страна призраков.2018.BDRip.1080p.DUB.mkv
Format                      : Matroska
Format version              : Version 4 / Version 2
File size                   : 4.37 GiB
Duration                    : 1 h 31 min
Overall bit rate            : 6 857 kb/s
Movie name                  : Incident in a Ghost Land (2018)
Encoded date                : UTC 2018-07-02 07:18:17
Writing application         : mkvmerge v6.8.0 ('Theme for Great Cities') 32bit built on Mar  2 2014 21:27:07
Writing library             : libebml v1.3.0 + libmatroska v1.4.1

Video
ID                          : 1
Format                      : AVC
Format/Info                 : Advanced Video Codec
Format profile              : High@L4.1
Format settings             : CABAC / 5 Ref Frames
Format settings, CABAC      : Yes
Format settings, ReFrames   : 5 frames
Codec ID                    : V_MPEG4/ISO/AVC
Duration                    : 1 h 31 min
Bit rate                    : 6 412 kb/s
Width                       : 1 920 pixels
Height                      : 804 pixels
Display aspect ratio        : 2.40:1
Frame rate mode             : Constant
Frame rate                  : 24.000 FPS
Color space                 : YUV
Chroma subsampling          : 4:2:0
Bit depth                   : 8 bits
Scan type                   : Progressive
Bits/(Pixel*Frame)          : 0.173
Stream size                 : 4.00 GiB (91%)
Writing library             : x264 core 130 r2273 b3065e6
Encoding settings           : cabac=1 / ref=5 / deblock=1:-3:-3 / analyse=0x3:0x113 / me=umh / subme=11 / psy=1 / psy_rd=1.00:0.15 / mixed_ref=1 / me_range=48 / chroma_me=1 / trellis=2 / 8x8dct=1 / cqm=0 / deadzone=21,11 / fast_pskip=0 / chroma_qp_offset=-4 / threads=6 / lookahead_threads=1 / sliced_threads=0 / nr=0 / decimate=0 / interlaced=0 / bluray_compat=0 / constrained_intra=0 / bframes=8 / b_pyramid=2 / b_adapt=2 / b_bias=0 / direct=2 / weightb=1 / open_gop=0 / weightp=2 / keyint=250 / keyint_min=24 / scenecut=40 / intra_refresh=0 / rc=2pass / mbtree=0 / bitrate=6412 / ratetol=1.0 / qcomp=0.60 / qpmin=0 / qpmax=69 / qpstep=4 / cplxblur=20.0 / qblur=0.5 / ip_ratio=1.40 / pb_ratio=1.30 / aq=2:1.00
Language                    : English
Default                     : Yes
Forced                      : No
Color range                 : Limited
Color primaries             : Generic film
Matrix coefficients         : YCgCo

Audio
ID                          : 2
Format                      : AC-3
Format/Info                 : Audio Coding 3
Codec ID                    : A_AC3
Duration                    : 1 h 31 min
Bit rate mode               : Constant
Bit rate                    : 448 kb/s
Channel(s)                  : 6 channels
Channel positions           : Front: L C R, Side: L R, LFE
Sampling rate               : 48.0 kHz
Frame rate                  : 31.250 FPS (1536 SPF)
Bit depth                   : 16 bits
Compression mode            : Lossy
Stream size                 : 292 MiB (7%)
Title                       : Dub | DD 5.1 @ 448 kbps - Blu-ray RUS
Language                    : Russian
Service kind                : Complete Main
Default                     : Yes
Forced                      : No

Text #1
ID                          : 3
Format                      : UTF-8
Codec ID                    : S_TEXT/UTF8
Codec ID/Info               : UTF-8 Plain Text
Title                       : Blu-ray RUS
Language                    : Russian
Default                     : No
Forced                      : No

Text #2
ID                          : 4
Format                      : UTF-8
Codec ID                    : S_TEXT/UTF8
Codec ID/Info               : UTF-8 Plain Text
Title                       : Full
Language                    : English
Default                     : No
Forced                      : No

Text #3
ID                          : 5
Format                      : UTF-8
Codec ID                    : S_TEXT/UTF8
Codec ID/Info               : UTF-8 Plain Text
Title                       : SDH
Language                    : English
Default                     : No
Forced                      : No

Menu
00:00:00.000                : en:Chapter 1
00:01:29.791                : en:Chapter 2
00:10:57.750                : en:Chapter 3
00:19:48.833                : en:Chapter 4
00:29:28.916                : en:Chapter 5
00:41:00.708                : en:Chapter 6
00:51:49.875                : en:Chapter 7
01:03:50.333                : en:Chapter 8
01:16:10.833                : en:Chapter 9






Скачать Страна.призраков.Incident.in.a.Ghost.Land.(Паскаль.Ложье).[2018.ужасы.BDRip].[1080p].[Dub].[Лицензия.(Blu-ray.RUS)].[R.G.Goldenshara].torrent без регистрации
Золото ЗОЛОТАЯ РАЗДАЧА! СКАЧАННОЕ НЕ ЗАСЧИТЫВАЕТСЯ! Золото
Дата: Зарегистрирован   [ Тип: внутренний ] Как тут cкачать?
MAGNET ссылка
MAGNET ссылка


Скачать .torrent

11 KB

Статус: проверено DHT
Скачан: торрент - 127 раз, раздача полностью - 58 раз
Размер: 4,37 GB
Оценка:  5 (Голосов: 3)
Поблагодарили: 6
Поделиться ссылкой на эту раздачу с друзьями:
В контактеFacebookОдноклассникиTwitterLivejournalМой МирLiveinternet
 

 
Показать сообщения:    


Вы не можете начинать темы
Вы не можете отвечать на сообщения
Вы не можете редактировать свои сообщения
Вы не можете удалять свои сообщения
Вы не можете голосовать в опросах
Вы не можете прикреплять файлы к сообщениям
Вы можете скачивать файлы