Loading...
Error

Скачать Острые предметы / Sharp Objects / Сезон: 1 / Серии: 1 из 8 (Жан-Марк Валле) [2018, триллер, драма, криминал, детектив, WEB-DL 1080p] [MVO] (Amedia) торрент без регистрации

Статистика раздачи
Размер:  4,48 GB   |    Скачан:  44 раза
Сидов:  1  [  0 KB/s  ]  
 
 
 
Автор Сообщение

leon030982

[] 

Информация о фильме

Название: Острые предметы
Оригинальное название: Sharp Objects
Год выпуска: 2018
Жанр: триллер, драма, криминал, детектив
Страна: США
Студия: Blumhouse Productions, eOne Television
Продолжительность: ~01:00:00 серия
Перевод: Профессиональный (многоголосый, закадровый) Кравец по заказу Amedia

Режиссер: Жан-Марк Валле

В ролях: Эми Адамс, Патриша Кларксон, Крис Мессина, Мэтт Крэйвен, Генри Черни, Мигель Сандовал, Сидни Свини[/color]

О фильме: Камилла Прикер, не особо удачливый репортер одной из не особо успешных газет Чикаго, мечтает о блестящей карьере. И вот девушке выпадает счастливый шанс, способный резко повысить ее журналистский статус, — Камиллу посылают корреспондентом в маленький городок, где жертвой маньяка стали несколько девочек. Камилла в этом городе родилась и выросла, но погружение в страшную реальность провинциальной жизни оборачивается для нее цепью кошмарных событий.



Файл
Качество: WEB-DL 1080p
Формат: MKV
Видео: MPEG-4 AVC, ~ 9372 Кбит/с, 1920x1080
Аудио 1: 48 kHz, AC3, 2 ch, ~192 kbps avg - Русский |Многоголосый закадровый, Amedia|
Аудио 2: 48 kHz, AC3, 6 ch, ~640 kbps avg - Английский |Оригинал|
Субтитры: английские

***Примечание: Без рекламы.
General
Unique ID : 197132946921293190780683705463992215268 (0x944E6CAF50C2CAEB9FA211ECECAFE6E4)
Complete name : F:\Sharp Objects01.01.Kraves.WEB-DL 1080p.mkv
Format : Matroska
Format version : Version 2
File size : 4.48 GiB
Duration : 1 h 1 min
Overall bit rate : 10.4 Mb/s
Encoded date : UTC 2018-07-09 04:48:20
Writing application : mkvmerge v3.1.0 ('Happy up here') built on Jan 19 2010 12:09:24
Writing library : libebml v0.7.9 + libmatroska v0.8.1

Video
ID : 1
Format : AVC
Format/Info : Advanced Video Codec
Format profile : High@L4
Format settings : CABAC / 4 Ref Frames
Format settings, CABAC : Yes
Format settings, RefFrames : 4 frames
Codec ID : V_MPEG4/ISO/AVC
Duration : 1 h 1 min
Bit rate : 9 372 kb/s
Width : 1 920 pixels
Height : 1 080 pixels
Display aspect ratio : 16:9
Frame rate mode : Constant
Frame rate : 23.810 FPS
Original frame rate : 23.976 (24000/1001) FPS
Color space : YUV
Chroma subsampling : 4:2:0
Bit depth : 8 bits
Scan type : Progressive
Bits/(Pixel*Frame) : 0.190
Stream size : 4.03 GiB (90%)
Default : No
Forced : No
Color range : Limited
Color primaries : BT.709
Transfer characteristics : BT.709
Matrix coefficients : BT.709

Audio #1
ID : 2
Format : AC-3
Format/Info : Audio Coding 3
Format settings, Endianness : Big
Codec ID : A_AC3
Duration : 1 h 1 min
Bit rate mode : Constant
Bit rate : 192 kb/s
Channel(s) : 2 channels
Channel positions : Front: L R
Sampling rate : 48.0 kHz
Frame rate : 31.250 FPS (1536 SPF)
Bit depth : 16 bits
Compression mode : Lossy
Stream size : 84.5 MiB (2%)
Language : Russian
Service kind : Complete Main
Default : No
Forced : Yes

Audio #2
ID : 3
Format : AC-3
Format/Info : Audio Coding 3
Format settings, Endianness : Big
Codec ID : A_AC3
Duration : 1 h 1 min
Bit rate mode : Constant
Bit rate : 640 kb/s
Channel(s) : 6 channels
Channel positions : Front: L C R, Side: L R, LFE
Sampling rate : 48.0 kHz
Frame rate : 31.250 FPS (1536 SPF)
Bit depth : 16 bits
Compression mode : Lossy
Stream size : 282 MiB (6%)
Language : English
Service kind : Complete Main
Default : Yes
Forced : No

Text #1
ID : 4
Format : UTF-8
Codec ID : S_TEXT/UTF8
Codec ID/Info : UTF-8 Plain Text
Title : English
Language : English
Default : No
Forced : No

Text #2
ID : 5
Format : UTF-8
Codec ID : S_TEXT/UTF8
Codec ID/Info : UTF-8 Plain Text
Title : English (SDH)
Language : English
Default : No
Forced : No
Когда раздача ведётся путём добавления новых серий, при каждом добавлении создётся новый торрент. Чтобы начать докачку новой серии, пользователям необходимо сделать следующее:

(1) остановить скачивание,

(2) удалить старый торрент у себя из клиента (старые серии удалять не надо),

(3) скачать новый торрент и запустить его у себя в клиенте вместо старого, при этом указать клиенту путь в старую папку, куда и должно происходить скачивание новых серий.

Ваш клиент при этом должен произвести хеширование (проверку) старой папки (если не производит сам - помогите ему сделать это), и будет докачивать только те серии, которых у вас ещё нет. Старые серии при этом не удаляются, а продолжают раздаваться!

Eсли вы уже удалили старые серии, то предотвратить повторную закачку старых серий можно, отжав галочку в соответсвующих местах при запуске нового торрента. По возможности, желательно не удалять старые серии как можно дольше, чтобы релизер не столько продолжал раздавать старые серии, а смог сконцентрироваться на новых.



Скачать Острые.предметы.Sharp.Objects.Сезон.1.Серии.1.из.8.(Жан-Марк.Валле).[2018.триллер.драма.криминал.детектив.WEB-DL.1080p].[MVO].(Amedia).torrent без регистрации
Золото ЗОЛОТАЯ РАЗДАЧА! СКАЧАННОЕ НЕ ЗАСЧИТЫВАЕТСЯ! Золото
Дата: Зарегистрирован   [ Тип: внутренний ] Как тут cкачать?
MAGNET ссылка
MAGNET ссылка


Скачать .torrent

23 KB

Статус: проверено DHT
Скачан: торрент - 44 раз, раздача полностью - 1 раз
Размер: 4,48 GB
Оценка:  - (Голосов: 0)
Поблагодарили: 0
Поделиться ссылкой на эту раздачу с друзьями:
В контактеFacebookОдноклассникиTwitterLivejournalМой МирLiveinternet
 

 
Показать сообщения:    


Вы не можете начинать темы
Вы не можете отвечать на сообщения
Вы не можете редактировать свои сообщения
Вы не можете удалять свои сообщения
Вы не можете голосовать в опросах
Вы не можете прикреплять файлы к сообщениям
Вы можете скачивать файлы