Loading...
Error

Скачать Идеальный дом / Ideal Home (Эндрю Флеминг) [2018, Драма, комедия, WEB-DLRip-AVC] [MVO] (HDRezka Studio) торрент без регистрации

Статистика раздачи
Размер:  1,58 GB   |    Скачан:  83 раза
Сидов:  2  [  0 KB/s  ]  
 
 
 
Автор Сообщение

leon030982

[] 

Идеальный дом / Ideal Home

«These Dads Suck»


Год выпуска: 2018
Страна: США
Производство: Remstar Studios, Baby Cow Films, Indieproduction
Жанр: Драма, комедия
Продолжительность: 01:31:17
Перевод: Профессиональный (многоголосый, закадровый) | HDRezka Studio
Субтитры: Английские (SDH)
Реклама: Отсутствует

Режиссёр: Эндрю Флеминг

В ролях: Кейт Уолш, Пол Радд, Элисон Пилл, Джейк Макдорман, Стив Кугэн, Лора Каннингэм, Сара Минник, Джесси Люкен, Кассандра Рошелль Фетерс, Дженни Гэбриэлль

Описание: Эрасмус и Пол живут весёлой и беззаботной жизнь, пока на пороге не возникает 10-летний парень - по его собственному заверению, внук Эрасмуса. Привычному существованию приходит конец.



Качество: WEB-DLRip-AVC
Формат: MKV
Видео кодек: MPEG-4 AVC
Аудио кодек: AC3
Видео: 1024x426 (2.40:1), 23,976 fps, x264 ~1 839 kbps avg, 0.176 bit/pixel
Аудио #1: 48 kHz, AC3 Dolby Digital, 2 (L,R) ch, ~192.00 kbps avg | RUS (HDRezka Studio)
Аудио #2: 48 kHz, AC3 Dolby Digital, 3/2 (L,C,R,l,r) + LFE ch, ~448.00 kbps avg | ENG



Релиз от: Rip by:


Общее

Уникальный идентификатор : 180770053823477892963068519191297800684 (0x87FF0BC4BC9439DC9491387FE14639EC)

Полное имя : F:OlLanDGroupIdeal.Home.2017.WEB-DLRip(AVC).OlLanDGroup.mkv

Формат : Matroska

Версия формата : Version 4 / Version 2

Размер файла : 1,58 Гбайт

Продолжительность : 1 ч. 31 м.

Общий поток : 2480 Кбит/сек

Название фильма : Ideal.Home.2017 #TorpedoUK#

Дата кодирования : UTC 2018-07-10 16:12:20

Программа кодирования : mkvmerge v8.3.0 ('Over the Horizon') 64bit

Библиотека кодирования : libebml v1.3.1 + libmatroska v1.4.2

Видео

Идентификатор : 1

Формат : AVC

Формат/Информация : Advanced Video Codec

Профиль формата : High@L4.1

Параметр CABAC формата : Да

Параметр ReFrames формата : 10 кадров

Идентификатор кодека : V_MPEG4/ISO/AVC

Продолжительность : 1 ч. 31 м.

Битрейт : 1839 Кбит/сек

Ширина : 1024 пикселя

Высота : 426 пикселей

Соотношение сторон : 2,40:1

Режим частоты кадров : Постоянный

Частота кадров : 23,976 (24000/1001) кадра/сек

Цветовое пространство : YUV

Субдискретизация насыщенности : 4:2:0

Битовая глубина : 8 бит

Тип развёртки : Прогрессивная

Бит/(Пиксели*Кадры) : 0.176

Размер потока : 1,17 Гбайт (74%)

Библиотека кодирования : x264 core 146 r2538 121396c

Настройки программы : cabac=1 / ref=10 / deblock=1:-3:-3 / analyse=0x3:0x113 / me=umh / subme=11 / psy=1 / psy_rd=0.98:0.04 / mixed_ref=1 / me_range=48 / chroma_me=1 / trellis=2 / 8x8dct=1 / cqm=0 / deadzone=21,11 / fast_pskip=1 / chroma_qp_offset=-3 / threads=6 / lookahead_threads=1 / sliced_threads=0 / nr=0 / decimate=1 / interlaced=0 / bluray_compat=0 / constrained_intra=0 / bframes=10 / b_pyramid=2 / b_adapt=2 / b_bias=0 / direct=3 / weightb=1 / open_gop=0 / weightp=2 / keyint=240 / keyint_min=23 / scenecut=40 / intra_refresh=0 / rc_lookahead=40 / rc=2pass / mbtree=1 / bitrate=1839 / ratetol=1.0 / qcomp=0.60 / qpmin=0 / qpmax=69 / qpstep=4 / cplxblur=20.0 / qblur=0.5 / vbv_maxrate=50000 / vbv_bufsize=62500 / nal_hrd=none / filler=0 / ip_ratio=1.40 / aq=1:1.00

Default : Да

Forced : Нет

Аудио #1

Идентификатор : 2

Формат : AC-3

Формат/Информация : Audio Coding 3

Расширение режима : CM (complete main)

Параметр Endianness формата : Big

Идентификатор кодека : A_AC3

Продолжительность : 1 ч. 31 м.

Вид битрейта : Постоянный

Битрейт : 192 Кбит/сек

Каналы : 2 канала

Расположение каналов : Front: L R

Частота : 48,0 КГц

Частота кадров : 31,250 кадров/сек (1536 spf)

Битовая глубина : 16 бит

Метод сжатия : С потерями

Размер потока : 125 Мбайт (8%)

Заголовок : [HDRezka Studio]

Язык : Russian

Default : Да

Forced : Нет

Аудио #2

Идентификатор : 3

Формат : AC-3

Формат/Информация : Audio Coding 3

Расширение режима : CM (complete main)

Параметр Endianness формата : Big

Идентификатор кодека : A_AC3

Продолжительность : 1 ч. 31 м.

Вид битрейта : Постоянный

Битрейт : 448 Кбит/сек

Каналы : 6 каналов

Расположение каналов : Front: L C R, Side: L R, LFE

Частота : 48,0 КГц

Частота кадров : 31,250 кадров/сек (1536 spf)

Битовая глубина : 16 бит

Метод сжатия : С потерями

Размер потока : 293 Мбайт (18%)

Заголовок : Original

Язык : English

Default : Нет

Forced : Нет

Текст

Идентификатор : 4

Формат : UTF-8

Идентификатор кодека : S_TEXT/UTF8

Идентификатор кодека/Информация : UTF-8 Plain Text

Продолжительность : 1 ч. 25 м.

Битрейт : 72 бит/сек

Count of elements : 1509

Размер потока : 45,4 Кбайт (0%)

Заголовок : SDH

Язык : English

Default : Нет

Forced : Нет



Скачать Идеальный.дом.Ideal.Home.(Эндрю.Флеминг).[2018.Драма.комедия.WEB-DLRip-AVC].[MVO].(HDRezka.Studio).torrent без регистрации
Золото ЗОЛОТАЯ РАЗДАЧА! СКАЧАННОЕ НЕ ЗАСЧИТЫВАЕТСЯ! Золото
Дата: Зарегистрирован   [ Тип: внутренний ] Как тут cкачать?
MAGNET ссылка
MAGNET ссылка


Скачать .torrent

17 KB

Статус: проверено DHT
Скачан: торрент - 83 раз, раздача полностью - 40 раз
Размер: 1,58 GB
Оценка:  5 (Голосов: 1)
Поблагодарили: 5
Поделиться ссылкой на эту раздачу с друзьями:
В контактеFacebookОдноклассникиTwitterLivejournalМой МирLiveinternet
 

 
Показать сообщения:    


Вы не можете начинать темы
Вы не можете отвечать на сообщения
Вы не можете редактировать свои сообщения
Вы не можете удалять свои сообщения
Вы не можете голосовать в опросах
Вы не можете прикреплять файлы к сообщениям
Вы можете скачивать файлы